<?xml version="1.0" standalone="no"?>
<!DOCTYPE svg PUBLIC "-//W3C//DTD SVG 1.1//EN" "http://www.w3.org/Graphics/SVG/1.1/DTD/svg11.dtd" >
<svg xmlns="http://www.w3.org/2000/svg">
<metadata>Generated by IcoMoon</metadata>
<defs>
<font id="Pe-icon-set-interface" horiz-adv-x="1024">
<font-face units-per-em="1024" ascent="960" descent="-64" />
<missing-glyph horiz-adv-x="1024" />
<glyph unicode="&#x20;" d="" horiz-adv-x="512" />
<glyph unicode="&#xe600;" d="M500.8 408c-12.8 11.2-33.6 11.2-44.8-3.2l-72-80v475.2c0 17.6-14.4 32-32 32s-32-14.4-32-32v-475.2l-72 81.6c-11.2 12.8-32 14.4-44.8 3.2s-14.4-32-3.2-44.8l152-172.8 152 171.2c11.2 12.8 11.2 33.6-3.2 44.8zM672 64h-640c-17.6 0-32 14.4-32 32s14.4 32 32 32h640c17.6 0 32-14.4 32-32s-14.4-32-32-32z" horiz-adv-x="704" />
<glyph unicode="&#xe601;" d="M736 480h-475.2l81.6 72c12.8 11.2 14.4 32 3.2 44.8s-32 14.4-44.8 3.2l-172.8-152 171.2-152c6.4-4.8 14.4-8 20.8-8 9.6 0 17.6 3.2 24 11.2 11.2 12.8 11.2 33.6-3.2 44.8l-80 72h475.2c17.6 0 32 14.4 32 32s-14.4 32-32 32zM32 96c-17.6 0-32 14.4-32 32v640c0 17.6 14.4 32 32 32s32-14.4 32-32v-640c0-17.6-14.4-32-32-32z" horiz-adv-x="768" />
<glyph unicode="&#xe602;" d="M468.8 600c-12.8 11.2-33.6 11.2-44.8-3.2-11.2-12.8-11.2-33.6 3.2-44.8l81.6-72h-476.8c-17.6 0-32-14.4-32-32s14.4-32 32-32h475.2l-81.6-72c-12.8-11.2-14.4-32-3.2-44.8 6.4-6.4 14.4-11.2 24-11.2 8 0 14.4 3.2 20.8 8l172.8 152-171.2 152zM736 96c-17.6 0-32 14.4-32 32v640c0 17.6 14.4 32 32 32s32-14.4 32-32v-640c0-17.6-14.4-32-32-32z" horiz-adv-x="768" />
<glyph unicode="&#xe603;" d="M504 532.8l-152 171.2-152-171.2c-11.2-12.8-11.2-33.6 3.2-44.8 6.4-4.8 14.4-8 20.8-8 9.6 0 17.6 3.2 24 11.2l72 81.6v-476.8c0-17.6 14.4-32 32-32s32 14.4 32 32v475.2l72-81.6c11.2-12.8 32-14.4 44.8-3.2 14.4 12.8 14.4 33.6 3.2 46.4zM672 768h-640c-17.6 0-32 14.4-32 32s14.4 32 32 32h640c17.6 0 32-14.4 32-32s-14.4-32-32-32z" horiz-adv-x="704" />
<glyph unicode="&#xe604;" d="M508.8 256l-200 236.8c-11.2 12.8-9.6 33.6 3.2 44.8s33.6 9.6 44.8-3.2l152-179.2 152 179.2c11.2 12.8 32 14.4 44.8 3.2s14.4-32 3.2-44.8l-200-236.8zM512-64c-281.6 0-512 230.4-512 512s230.4 512 512 512 512-230.4 512-512-230.4-512-512-512zM512 896c-246.4 0-448-201.6-448-448s201.6-448 448-448 448 201.6 448 448-201.6 448-448 448z" />
<glyph unicode="&#xe605;" d="M577.6 243.2c-8 0-14.4 3.2-20.8 8l-236.8 200 236.8 200c12.8 11.2 33.6 9.6 44.8-3.2s9.6-33.6-3.2-44.8l-179.2-152 179.2-152c12.8-11.2 14.4-32 3.2-44.8-6.4-8-16-11.2-24-11.2zM512-64c-281.6 0-512 230.4-512 512s230.4 512 512 512 512-230.4 512-512-230.4-512-512-512zM512 896c-246.4 0-448-201.6-448-448s201.6-448 448-448 448 201.6 448 448-201.6 448-448 448z" />
<glyph unicode="&#xe606;" d="M446.4 243.2c-9.6 0-17.6 3.2-24 11.2-11.2 12.8-9.6 33.6 3.2 44.8l179.2 152-179.2 152c-12.8 11.2-14.4 32-3.2 44.8s32 14.4 44.8 3.2l236.8-200-236.8-201.6c-6.4-4.8-12.8-6.4-20.8-6.4zM512-64c-281.6 0-512 230.4-512 512s230.4 512 512 512 512-230.4 512-512-230.4-512-512-512zM512 896c-246.4 0-448-201.6-448-448s201.6-448 448-448 448 201.6 448 448-201.6 448-448 448z" />
<glyph unicode="&#xe607;" d="M691.2 350.4c-9.6 0-17.6 3.2-24 11.2l-152 179.2-152-179.2c-11.2-12.8-32-14.4-44.8-3.2s-14.4 32-3.2 44.8l200 236.8 200-236.8c11.2-12.8 9.6-33.6-3.2-44.8-6.4-4.8-14.4-8-20.8-8zM512-64c-281.6 0-512 230.4-512 512s230.4 512 512 512 512-230.4 512-512-230.4-512-512-512zM512 896c-246.4 0-448-201.6-448-448s201.6-448 448-448 448 201.6 448 448-201.6 448-448 448z" />
<glyph unicode="&#xe608;" d="M224 286.4l-216 252.8c-11.2 12.8-9.6 33.6 3.2 44.8s33.6 9.6 44.8-3.2l168-195.2 168 195.2c11.2 12.8 32 14.4 44.8 3.2s14.4-32 3.2-44.8l-216-252.8z" horiz-adv-x="448" />
<glyph unicode="&#xe609;" d="M272 224c-8 0-14.4 3.2-20.8 8l-252.8 216 252.8 216c12.8 11.2 33.6 9.6 44.8-3.2s9.6-33.6-3.2-44.8l-195.2-168 195.2-168c12.8-11.2 14.4-32 3.2-44.8-6.4-8-14.4-11.2-24-11.2z" horiz-adv-x="304" />
<glyph unicode="&#xe60a;" d="M32 224c-9.6 0-17.6 3.2-24 11.2-11.2 12.8-9.6 33.6 3.2 44.8l195.2 168-195.2 168c-12.8 11.2-14.4 32-3.2 44.8s32 14.4 44.8 3.2l252.8-216-252.8-216c-6.4-4.8-12.8-8-20.8-8z" horiz-adv-x="304" />
<glyph unicode="&#xe60b;" d="M416 304c-9.6 0-17.6 3.2-24 11.2l-168 195.2-168-195.2c-11.2-12.8-32-14.4-44.8-3.2s-14.4 32-3.2 44.8l216 252.8 216-252.8c11.2-12.8 9.6-33.6-3.2-44.8-6.4-4.8-12.8-8-20.8-8z" horiz-adv-x="448" />
<glyph unicode="&#xe60c;" d="M512-64c-281.6 0-512 230.4-512 512s230.4 512 512 512 512-230.4 512-512-230.4-512-512-512zM512 896c-246.4 0-448-201.6-448-448s201.6-448 448-448 448 201.6 448 448-201.6 448-448 448zM710.4 408c-12.8 11.2-33.6 9.6-44.8-3.2l-121.6-144v475.2c0 17.6-14.4 32-32 32s-32-14.4-32-32v-475.2l-121.6 144c-11.2 12.8-32 14.4-44.8 3.2s-14.4-32-3.2-44.8l201.6-238.4 201.6 238.4c12.8 12.8 11.2 33.6-3.2 44.8z" />
<glyph unicode="&#xe60d;" d="M512-64c-281.6 0-512 230.4-512 512s230.4 512 512 512 512-230.4 512-512-230.4-512-512-512zM512 896c-246.4 0-448-201.6-448-448s201.6-448 448-448 448 201.6 448 448-201.6 448-448 448zM800 480h-475.2l144 121.6c12.8 11.2 14.4 32 3.2 44.8s-32 14.4-44.8 3.2l-238.4-201.6 27.2-22.4c0 0 0 0 0 0l211.2-179.2c6.4-4.8 12.8-8 20.8-8 9.6 0 17.6 3.2 24 11.2 11.2 12.8 9.6 33.6-3.2 44.8l-144 121.6h475.2c17.6 0 32 14.4 32 32s-14.4 32-32 32z" />
<glyph unicode="&#xe60e;" d="M512-64c-281.6 0-512 230.4-512 512s230.4 512 512 512 512-230.4 512-512-230.4-512-512-512zM512 896c-246.4 0-448-201.6-448-448s201.6-448 448-448 448 201.6 448 448-201.6 448-448 448zM809.6 425.6l27.2 22.4-240 203.2c-12.8 11.2-33.6 9.6-44.8-3.2s-9.6-33.6 3.2-44.8l144-121.6h-475.2c-17.6 0-32-14.4-32-32s14.4-32 32-32h475.2l-142.4-121.6c-12.8-11.2-14.4-32-3.2-44.8 6.4-8 16-11.2 24-11.2s14.4 3.2 20.8 8l211.2 177.6c0 0 0 0 0 0z" />
<glyph unicode="&#xe60f;" d="M512-64c-281.6 0-512 230.4-512 512s230.4 512 512 512 512-230.4 512-512-230.4-512-512-512zM512 896c-246.4 0-448-201.6-448-448s201.6-448 448-448 448 201.6 448 448-201.6 448-448 448zM715.2 532.8l-203.2 238.4-201.6-238.4c-11.2-12.8-9.6-33.6 3.2-44.8s33.6-9.6 44.8 3.2l121.6 142.4v-473.6c0-17.6 14.4-32 32-32s32 14.4 32 32v475.2l121.6-144c6.4-8 16-11.2 24-11.2s14.4 3.2 20.8 8c14.4 11.2 16 32 4.8 44.8z" />
<glyph unicode="&#xe610;" d="M502.4 416c-12.8 12.8-33.6 12.8-44.8 0l-169.6-171.2v484.8c0 17.6-14.4 32-32 32s-32-14.4-32-32v-484.8l-169.6 171.2c-12.8 12.8-32 12.8-44.8 0s-12.8-32 0-44.8l246.4-249.6 246.4 251.2c12.8 11.2 12.8 32 0 43.2z" horiz-adv-x="512" />
<glyph unicode="&#xe611;" d="M601.6 480h-484.8l171.2 169.6c12.8 12.8 12.8 32 0 44.8s-32 12.8-44.8 0l-249.6-246.4 251.2-246.4c6.4-6.4 14.4-9.6 22.4-9.6s16 3.2 22.4 9.6c12.8 12.8 12.8 33.6 0 44.8l-172.8 169.6h484.8c17.6 0 32 14.4 32 32s-14.4 32-32 32z" horiz-adv-x="640" />
<glyph unicode="&#xe612;" d="M380.8 694.4c-12.8 12.8-33.6 12.8-44.8 0-12.8-12.8-12.8-33.6 0-44.8l171.2-169.6h-484.8c-17.6 0-32-14.4-32-32s14.4-32 32-32h484.8l-171.2-169.6c-12.8-12.8-12.8-32 0-44.8 6.4-6.4 14.4-9.6 22.4-9.6s16 3.2 22.4 9.6l249.6 246.4-249.6 246.4z" horiz-adv-x="640" />
<glyph unicode="&#xe613;" d="M1024-64h-1024v1024h1024v-1024zM64 0h896v896h-896v-896zM710.4 408c-12.8 11.2-33.6 9.6-44.8-3.2l-121.6-144v475.2c0 17.6-14.4 32-32 32s-32-14.4-32-32v-475.2l-121.6 144c-11.2 12.8-32 14.4-44.8 3.2s-14.4-32-3.2-44.8l201.6-238.4 201.6 238.4c12.8 12.8 9.6 33.6-3.2 44.8z" />
<glyph unicode="&#xe614;" d="M1024-64h-1024v1024h1024v-1024zM64 0h896v896h-896v-896zM800 480h-475.2l144 121.6c12.8 11.2 14.4 32 3.2 44.8s-32 14.4-44.8 3.2l-238.4-201.6 238.4-201.6c6.4-4.8 12.8-8 20.8-8 9.6 0 17.6 3.2 24 11.2 11.2 12.8 9.6 33.6-3.2 44.8l-144 121.6h475.2c17.6 0 32 14.4 32 32s-14.4 32-32 32z" />
<glyph unicode="&#xe615;" d="M1024-64h-1024v1024h1024v-1024zM64 0h896v896h-896v-896zM596.8 651.2c-12.8 11.2-33.6 9.6-44.8-3.2s-9.6-33.6 3.2-44.8l144-121.6h-475.2c-17.6 0-32-14.4-32-32s14.4-32 32-32h475.2l-142.4-121.6c-12.8-11.2-14.4-32-3.2-44.8 6.4-8 16-11.2 24-11.2s14.4 3.2 20.8 8l236.8 200-238.4 203.2z" />
<glyph unicode="&#xe616;" d="M1024-64h-1024v1024h1024v-1024zM64 0h896v896h-896v-896zM715.2 532.8l-203.2 238.4-201.6-238.4c-11.2-12.8-9.6-33.6 3.2-44.8s33.6-9.6 44.8 3.2l121.6 142.4v-473.6c0-17.6 14.4-32 32-32s32 14.4 32 32v475.2l121.6-144c6.4-8 16-11.2 24-11.2s14.4 3.2 20.8 8c14.4 11.2 16 32 4.8 44.8z" />
<glyph unicode="&#xe617;" d="M502.4 524.8l-246.4 249.6-246.4-249.6c-12.8-12.8-12.8-33.6 0-44.8 12.8-12.8 33.6-12.8 44.8 0l169.6 171.2v-484.8c0-17.6 14.4-32 32-32s32 14.4 32 32v484.8l169.6-171.2c6.4-6.4 14.4-9.6 22.4-9.6s16 3.2 22.4 9.6c12.8 11.2 12.8 32 0 44.8z" horiz-adv-x="512" />
<glyph unicode="&#xe618;" d="M512 816c-17.6 0-32-14.4-32-32s14.4-32 32-32h115.2l-563.2-563.2v115.2c0 17.6-14.4 32-32 32s-32-14.4-32-32v-224h224c17.6 0 32 14.4 32 32s-14.4 32-32 32h-115.2l563.2 563.2v-115.2c0-17.6 14.4-32 32-32s32 14.4 32 32v224h-224z" horiz-adv-x="736" />
<glyph unicode="&#xe619;" d="M704 336c-17.6 0-32-14.4-32-32v-115.2l-563.2 563.2h115.2c17.6 0 32 14.4 32 32s-14.4 32-32 32h-224v-224c0-17.6 14.4-32 32-32s32 14.4 32 32v115.2l563.2-563.2h-115.2c-17.6 0-32-14.4-32-32s14.4-32 32-32h224v224c0 17.6-14.4 32-32 32z" horiz-adv-x="736" />
<glyph unicode="&#xe61a;" d="M852.8 600c-12.8 11.2-33.6 11.2-44.8-3.2s-11.2-33.6 3.2-44.8l81.6-72h-760l81.6 72c12.8 11.2 14.4 32 3.2 44.8s-32 14.4-44.8 3.2l-172.8-152 171.2-152c6.4-4.8 14.4-8 20.8-8 9.6 0 17.6 3.2 24 11.2 11.2 12.8 11.2 33.6-3.2 44.8l-80 72h760l-81.6-72c-12.8-11.2-14.4-32-3.2-44.8 6.4-6.4 14.4-11.2 24-11.2 8 0 14.4 3.2 20.8 8l171.2 152-171.2 152z" />
<glyph unicode="&#xe61b;" d="M264 148.8l-72-80v758.4l72-81.6c11.2-12.8 32-14.4 44.8-3.2s14.4 32 3.2 44.8l-152 172.8-152-171.2c-11.2-12.8-11.2-33.6 3.2-44.8 6.4-4.8 14.4-8 20.8-8 9.6 0 17.6 3.2 24 11.2l72 80v-760l-72 81.6c-11.2 12.8-32 14.4-44.8 3.2s-14.4-32-3.2-44.8l152-171.2 152 171.2c11.2 12.8 11.2 33.6-3.2 44.8-12.8 11.2-33.6 11.2-44.8-3.2z" horiz-adv-x="320" />
<glyph unicode="&#xe61c;" d="M1019.2 3.2l-59.2 107.2c-124.8 224-268.8 238.4-420.8 240v-222.4l-534.4 382.4 534.4 382.4v-222.4c318.4-14.4 480-196.8 480-544v-123.2zM475.2 414.4h32c142.4 0 302.4 0 441.6-172.8-8 59.2-24 124.8-57.6 182.4-70.4 120-198.4 180.8-384 182.4h-32v161.6l-360-257.6 361.6-257.6v161.6z" />
<glyph unicode="&#xe61d;" d="M672 758.4v174.4l-393.6-268.8h-278.4v-672h832v480c46.4-24 89.6-67.2 132.8-144l59.2-105.6v121.6c0 99.2 0 395.2-352 414.4zM768 56h-704v544h214.4l393.6-268.8v172.8c33.6 0 65.6-1.6 96-8v-440zM640 568h-32v-115.2l-262.4 179.2 262.4 179.2v-115.2h32c220.8-1.6 292.8-110.4 313.6-240-100.8 112-209.6 112-313.6 112z" />
<glyph unicode="&#xe61e;" d="M672 640c-17.6 0-32-14.4-32-32s14.4-32 32-32c35.2 0 64-28.8 64-64s-28.8-64-64-64h-376l78.4 72c12.8 12.8 12.8 32 1.6 44.8-12.8 12.8-32 12.8-44.8 1.6l-163.2-150.4 161.6-152c6.4-4.8 14.4-8 22.4-8s17.6 3.2 24 9.6c12.8 12.8 11.2 33.6-1.6 44.8l-78.4 73.6h376c70.4 0 128 57.6 128 128s-57.6 128-128 128zM512-64c-281.6 0-512 230.4-512 512s230.4 512 512 512 512-230.4 512-512-230.4-512-512-512zM512 896c-246.4 0-448-201.6-448-448s201.6-448 448-448 448 201.6 448 448-201.6 448-448 448z" />
<glyph unicode="&#xe61f;" d="M752 750.4h-720c-17.6 0-32-14.4-32-32s14.4-32 32-32h720c115.2 0 208-92.8 208-208s-92.8-208-208-208h-620.8l145.6 136c12.8 12.8 12.8 32 1.6 44.8-12.8 12.8-32 12.8-44.8 1.6l-230.4-214.4 230.4-216c6.4-6.4 14.4-8 22.4-8s17.6 3.2 24 9.6c12.8 12.8 11.2 33.6-1.6 44.8l-145.6 136h619.2c150.4 0 272 121.6 272 272s-121.6 273.6-272 273.6z" />
<glyph unicode="&#xe620;" d="M0 960v-1024h1024v1024h-1024zM646.4 360c-12.8 12.8-32 12.8-44.8 0s-12.8-32 0-44.8l313.6-315.2h-808l852.8 852.8v-808l-313.6 315.2zM64 851.2l307.2-307.2c6.4-6.4 14.4-9.6 22.4-9.6s16 3.2 22.4 9.6c12.8 12.8 12.8 32 0 44.8l-307.2 307.2h803.2l-848-848v803.2z" />
<glyph unicode="&#xe621;" d="M873.6 809.6c-96 97.6-225.6 150.4-361.6 150.4s-265.6-52.8-361.6-150.4c-200-200-200-524.8 0-724.8 96-96 225.6-150.4 361.6-150.4s265.6 52.8 361.6 150.4c96 96 150.4 225.6 150.4 361.6 0 137.6-52.8 267.2-150.4 363.2zM195.2 764.8c84.8 84.8 196.8 131.2 316.8 131.2 108.8 0 211.2-38.4 292.8-108.8l-632-632c-152 176-144 443.2 22.4 609.6zM828.8 131.2c-84.8-84.8-196.8-131.2-316.8-131.2-108.8 0-211.2 38.4-292.8 108.8l632 632c70.4-81.6 108.8-184 108.8-292.8 0-120-46.4-232-131.2-316.8z" />
<glyph unicode="&#xe622;" d="M608 640h-576c-17.6 0-32 14.4-32 32s14.4 32 32 32h576c17.6 0 32-14.4 32-32s-14.4-32-32-32zM608 416h-576c-17.6 0-32 14.4-32 32s14.4 32 32 32h576c17.6 0 32-14.4 32-32s-14.4-32-32-32zM608 192h-576c-17.6 0-32 14.4-32 32s14.4 32 32 32h576c17.6 0 32-14.4 32-32s-14.4-32-32-32z" horiz-adv-x="640" />
<glyph unicode="&#xe623;" d="M512-64c-136 0-265.6 52.8-361.6 150.4-200 198.4-200 523.2 0 723.2 96 97.6 225.6 150.4 361.6 150.4s265.6-52.8 361.6-150.4c96-96 150.4-225.6 150.4-361.6s-52.8-265.6-150.4-361.6c-96-97.6-225.6-150.4-361.6-150.4zM512 896c-120 0-232-46.4-316.8-131.2-174.4-174.4-174.4-459.2 0-633.6 84.8-84.8 196.8-131.2 316.8-131.2s232 46.4 316.8 131.2c84.8 84.8 131.2 196.8 131.2 316.8s-46.4 232-131.2 316.8c-84.8 84.8-196.8 131.2-316.8 131.2zM480 259.2l-166.4 166.4c-12.8 12.8-12.8 32 0 44.8s32 12.8 44.8 0l121.6-121.6 233.6 233.6c12.8 12.8 32 12.8 44.8 0s12.8-32 0-44.8l-278.4-278.4z" />
<glyph unicode="&#xe624;" d="M448 206.4l-216 252.8c-11.2 12.8-9.6 33.6 3.2 44.8s33.6 9.6 44.8-3.2l168-195.2 518.4 643.2c11.2 14.4 32 16 44.8 4.8 14.4-11.2 16-32 4.8-44.8l-568-702.4zM448-64c-246.4 0-448 201.6-448 448s201.6 448 448 448c59.2 0 118.4-11.2 172.8-33.6 16-6.4 24-25.6 17.6-41.6s-25.6-24-41.6-17.6c-46.4 19.2-96 28.8-147.2 28.8-212.8 0-385.6-172.8-385.6-384s172.8-384 384-384 384 172.8 384 384c0 19.2-1.6 40-4.8 59.2-3.2 17.6 9.6 33.6 27.2 36.8s33.6-9.6 36.8-27.2c3.2-22.4 4.8-46.4 4.8-68.8 0-246.4-201.6-448-448-448z" />
<glyph unicode="&#xe625;" d="M1024-64h-1024v1024h1024v-1024zM64 0h896v896h-896v-896zM480 267.2l-166.4 166.4c-12.8 12.8-12.8 32 0 44.8s32 12.8 44.8 0l121.6-121.6 233.6 233.6c12.8 12.8 32 12.8 44.8 0s12.8-32 0-44.8l-278.4-278.4z" />
<glyph unicode="&#xe626;" d="M448 206.4l-216 252.8c-11.2 12.8-9.6 33.6 3.2 44.8s33.6 9.6 44.8-3.2l168-195.2 518.4 643.2c11.2 14.4 32 16 44.8 4.8 14.4-11.2 16-32 4.8-44.8l-568-702.4zM896-64h-896v896h608c17.6 0 32-14.4 32-32s-14.4-32-32-32h-544v-768h768v448c0 17.6 14.4 32 32 32s32-14.4 32-32v-512z" />
<glyph unicode="&#xe627;" d="M512-64c-136 0-265.6 52.8-361.6 150.4-97.6 96-150.4 225.6-150.4 361.6s52.8 265.6 150.4 361.6c96 97.6 225.6 150.4 361.6 150.4s265.6-52.8 361.6-150.4c200-200 200-524.8 0-724.8-96-96-225.6-148.8-361.6-148.8zM512 896c-120 0-232-46.4-316.8-131.2s-131.2-196.8-131.2-316.8 46.4-232 131.2-316.8c84.8-84.8 196.8-131.2 316.8-131.2s232 46.4 316.8 131.2c174.4 174.4 174.4 459.2 0 633.6-84.8 84.8-196.8 131.2-316.8 131.2zM556.8 448l158.4 158.4c12.8 12.8 12.8 32 0 44.8s-32 12.8-44.8 0l-158.4-158.4-158.4 158.4c-12.8 12.8-32 12.8-44.8 0s-12.8-32 0-44.8l158.4-158.4-158.4-158.4c-12.8-12.8-12.8-32 0-44.8 6.4-6.4 14.4-9.6 22.4-9.6s16 3.2 22.4 9.6l158.4 158.4 158.4-158.4c6.4-6.4 14.4-9.6 22.4-9.6s16 3.2 22.4 9.6c12.8 12.8 12.8 32 0 44.8l-158.4 158.4z" />
<glyph unicode="&#xe628;" d="M1024-64h-1024v1024h1024v-1024zM64 0h896v896h-896v-896zM556.8 448l158.4 158.4c12.8 12.8 12.8 32 0 44.8s-32 12.8-44.8 0l-158.4-158.4-158.4 158.4c-12.8 12.8-32 12.8-44.8 0s-12.8-32 0-44.8l158.4-158.4-158.4-158.4c-12.8-12.8-12.8-32 0-44.8 6.4-6.4 14.4-9.6 22.4-9.6s16 3.2 22.4 9.6l158.4 158.4 158.4-158.4c6.4-6.4 14.4-9.6 22.4-9.6s16 3.2 22.4 9.6c12.8 12.8 12.8 32 0 44.8l-158.4 158.4z" />
<glyph unicode="&#xe629;" d="M758.4 822.4c-12.8 12.8-32 12.8-44.8 0l-233.6-233.6v115.2c0 17.6-14.4 32-32 32s-32-14.4-32-32v-224h224c17.6 0 32 14.4 32 32s-14.4 32-32 32h-115.2l233.6 233.6c12.8 12.8 12.8 32 0 44.8zM128 416c-17.6 0-32-14.4-32-32s14.4-32 32-32h115.2l-233.6-233.6c-12.8-12.8-12.8-32 0-44.8 6.4-6.4 14.4-9.6 22.4-9.6s16 3.2 22.4 9.6l233.6 233.6v-115.2c0-17.6 14.4-32 32-32s32 14.4 32 32v224h-224z" horiz-adv-x="768" />
<glyph unicode="&#xe62a;" d="M320 736c-17.6 0-32-14.4-32-32v-115.2l-233.6 233.6c-12.8 12.8-32 12.8-44.8 0s-12.8-32 0-44.8l233.6-233.6h-115.2c-17.6 0-32-14.4-32-32s14.4-32 32-32h224v224c0 17.6-14.4 32-32 32zM758.4 118.4l-233.6 233.6h115.2c17.6 0 32 14.4 32 32s-14.4 32-32 32h-224v-224c0-17.6 14.4-32 32-32s32 14.4 32 32v115.2l233.6-233.6c6.4-6.4 14.4-9.6 22.4-9.6s16 3.2 22.4 9.6c12.8 12.8 12.8 32 0 44.8z" horiz-adv-x="768" />
<glyph unicode="&#xe62b;" d="M1014.4-9.6l-297.6 297.6h147.2c17.6 0 32 14.4 32 32s-14.4 32-32 32h-256v-256c0-17.6 14.4-32 32-32s32 14.4 32 32v147.2l297.6-297.6c6.4-6.4 14.4-9.6 22.4-9.6s16 3.2 22.4 9.6c12.8 12.8 12.8 32 0 44.8zM384 832c-17.6 0-32-14.4-32-32v-147.2l-297.6 297.6c-12.8 12.8-32 12.8-44.8 0s-12.8-32 0-44.8l297.6-297.6h-147.2c-17.6 0-32-14.4-32-32s14.4-32 32-32h256v256c0 17.6-14.4 32-32 32zM160 352c-17.6 0-32-14.4-32-32s14.4-32 32-32h147.2l-297.6-297.6c-12.8-12.8-12.8-32 0-44.8 6.4-6.4 14.4-9.6 22.4-9.6s16 3.2 22.4 9.6l297.6 297.6v-147.2c0-17.6 14.4-32 32-32s32 14.4 32 32v256h-256zM1014.4 950.4c-12.8 12.8-32 12.8-44.8 0l-297.6-297.6v147.2c0 17.6-14.4 32-32 32s-32-14.4-32-32v-256h256c17.6 0 32 14.4 32 32s-14.4 32-32 32h-147.2l297.6 297.6c12.8 12.8 12.8 32 0 44.8z" />
<glyph unicode="&#xe62c;" d="M992 480h-283.2l81.6 72c12.8 11.2 14.4 32 3.2 44.8s-32 14.4-44.8 3.2l-172.8-152 171.2-152c6.4-4.8 14.4-8 20.8-8 9.6 0 17.6 3.2 24 11.2 11.2 12.8 11.2 33.6-3.2 44.8l-80 72h283.2c17.6 0 32 14.4 32 32s-14.4 32-32 32zM276.8 600c-12.8 11.2-33.6 11.2-44.8-3.2-11.2-12.8-11.2-33.6 3.2-44.8l81.6-72h-284.8c-17.6 0-32-14.4-32-32s14.4-32 32-32h283.2l-81.6-72c-12.8-11.2-14.4-32-3.2-44.8 6.4-6.4 14.4-11.2 24-11.2 8 0 14.4 3.2 20.8 8l172.8 152-171.2 152z" />
<glyph unicode="&#xe62d;" d="M768 264h-640v368h640v-368zM192 328h512v240h-512v-240zM32 488c-17.6 0-32 14.4-32 32v240h320c17.6 0 32-14.4 32-32s-14.4-32-32-32h-256v-176c0-17.6-14.4-32-32-32zM864 488c-17.6 0-32 14.4-32 32v176h-256c-17.6 0-32 14.4-32 32s14.4 32 32 32h320v-240c0-17.6-14.4-32-32-32zM320 136h-320v256c0 17.6 14.4 32 32 32s32-14.4 32-32v-192h256c17.6 0 32-14.4 32-32s-14.4-32-32-32zM896 136h-320c-17.6 0-32 14.4-32 32s14.4 32 32 32h256v192c0 17.6 14.4 32 32 32s32-14.4 32-32v-256z" horiz-adv-x="896" />
<glyph unicode="&#xe62e;" d="M312 212.8l-152 171.2-152-171.2c-11.2-12.8-11.2-33.6 3.2-44.8 12.8-11.2 33.6-11.2 44.8 3.2l72 81.6v-284.8c0-17.6 14.4-32 32-32s32 14.4 32 32v283.2l72-81.6c6.4-6.4 14.4-11.2 24-11.2 8 0 14.4 3.2 20.8 8 14.4 12.8 14.4 33.6 3.2 46.4zM308.8 728c-12.8 11.2-33.6 11.2-44.8-3.2l-72-80v283.2c0 17.6-14.4 32-32 32s-32-14.4-32-32v-283.2l-72 81.6c-11.2 12.8-32 14.4-44.8 3.2s-14.4-32-3.2-44.8l152-172.8 152 171.2c11.2 12.8 11.2 33.6-3.2 44.8z" horiz-adv-x="320" />
<glyph unicode="&#xe62f;" d="M864 16h-864v864h864v-864zM64 80h736v736h-736v-736zM640 176h-416c-17.6 0-32 14.4-32 32s14.4 32 32 32h416c17.6 0 32-14.4 32-32s-14.4-32-32-32z" horiz-adv-x="864" />
<glyph unicode="&#xe630;" d="M756.8 600c-12.8 11.2-33.6 11.2-44.8-3.2-11.2-12.8-11.2-33.6 3.2-44.8l81.6-72h-568l81.6 72c12.8 11.2 14.4 32 3.2 44.8s-32 14.4-44.8 3.2l-172.8-152 171.2-152c6.4-4.8 14.4-8 20.8-8 9.6 0 17.6 3.2 24 11.2 11.2 12.8 11.2 33.6-3.2 44.8l-80 72h568l-81.6-72c-12.8-11.2-14.4-32-3.2-44.8 6.4-6.4 14.4-11.2 24-11.2 8 0 14.4 3.2 20.8 8l171.2 152-171.2 152zM32 128c-17.6 0-32 14.4-32 32v576c0 17.6 14.4 32 32 32s32-14.4 32-32v-576c0-17.6-14.4-32-32-32zM992 128c-17.6 0-32 14.4-32 32v576c0 17.6 14.4 32 32 32s32-14.4 32-32v-576c0-17.6-14.4-32-32-32z" />
<glyph unicode="&#xe631;" d="M424 244.8l-72-80v566.4l72-81.6c6.4-6.4 14.4-11.2 24-11.2 8 0 14.4 3.2 20.8 8 12.8 11.2 14.4 32 3.2 44.8l-152 172.8-152-171.2c-11.2-12.8-11.2-33.6 3.2-44.8 12.8-11.2 33.6-11.2 44.8 3.2l72 81.6v-568l-72 81.6c-11.2 12.8-32 14.4-44.8 3.2s-14.4-32-3.2-44.8l152-172.8 152 171.2c11.2 12.8 11.2 33.6-3.2 44.8-12.8 11.2-33.6 11.2-44.8-3.2zM608 896h-576c-17.6 0-32 14.4-32 32s14.4 32 32 32h576c17.6 0 32-14.4 32-32s-14.4-32-32-32zM608-64h-576c-17.6 0-32 14.4-32 32s14.4 32 32 32h576c17.6 0 32-14.4 32-32s-14.4-32-32-32z" horiz-adv-x="640" />
<glyph unicode="&#xe632;" d="M672 496h-668.8l260.8 278.4c12.8 12.8 32 12.8 44.8 1.6 12.8-12.8 12.8-32 1.6-44.8l-158.4-171.2h520c17.6 0 32-14.4 32-32s-14.4-32-32-32zM672 112c-8 0-16 3.2-22.4 8-12.8 12.8-12.8 32-1.6 44.8l160 169.6h-520c-17.6 0-32 14.4-32 32s14.4 32 32 32h668.8l-260.8-276.8c-6.4-6.4-16-9.6-24-9.6z" horiz-adv-x="960" />
<glyph unicode="&#xe633;" d="M160 369.6c-6.4 0-12.8 1.6-17.6 4.8-89.6 59.2-142.4 158.4-142.4 265.6 0 176 144 320 320 320s320-144 320-320c0-107.2-52.8-206.4-140.8-265.6-14.4-9.6-35.2-6.4-44.8 8s-6.4 35.2 8 44.8c70.4 48 113.6 126.4 113.6 212.8 0 140.8-115.2 256-256 256s-256-115.2-256-256c0-86.4 43.2-164.8 113.6-212.8 14.4-9.6 19.2-30.4 8-44.8-4.8-8-16-12.8-25.6-12.8zM516.8 217.6c-12.8 11.2-33.6 9.6-44.8-3.2l-120-140.8v502.4c0 17.6-14.4 32-32 32s-32-14.4-32-32v-504l-120 140.8c-11.2 12.8-32 14.4-44.8 3.2s-14.4-32-3.2-44.8l200-235.2 200 236.8c11.2 14.4 9.6 33.6-3.2 44.8z" horiz-adv-x="640" />
<glyph unicode="&#xe634;" d="M640 352h-192c-17.6 0-32 14.4-32 32s14.4 32 32 32h128v480h-512v-480h128c17.6 0 32-14.4 32-32s-14.4-32-32-32h-192v608h640v-608zM516.8 217.6c-12.8 11.2-33.6 9.6-44.8-3.2l-120-142.4v568c0 17.6-14.4 32-32 32s-32-14.4-32-32v-568l-120 140.8c-11.2 12.8-32 14.4-44.8 3.2s-14.4-32-3.2-44.8l200-235.2 200 236.8c11.2 12.8 9.6 33.6-3.2 44.8z" horiz-adv-x="640" />
<glyph unicode="&#xe635;" d="M128 320c-70.4 0-128 57.6-128 128s57.6 128 128 128 128-57.6 128-128-57.6-128-128-128zM128 512c-35.2 0-64-28.8-64-64s28.8-64 64-64 64 28.8 64 64-28.8 64-64 64zM896 320c-70.4 0-128 57.6-128 128s57.6 128 128 128 128-57.6 128-128-57.6-128-128-128zM896 512c-35.2 0-64-28.8-64-64s28.8-64 64-64 64 28.8 64 64-28.8 64-64 64zM512 320c-70.4 0-128 57.6-128 128s57.6 128 128 128 128-57.6 128-128-57.6-128-128-128zM512 512c-35.2 0-64-28.8-64-64s28.8-64 64-64 64 28.8 64 64-28.8 64-64 64z" />
<glyph unicode="&#xe636;" d="M512 816c-17.6 0-32-14.4-32-32s14.4-32 32-32h115.2l-217.6-217.6c-12.8-12.8-12.8-32 0-44.8 6.4-6.4 14.4-9.6 22.4-9.6s16 3.2 22.4 9.6l217.6 217.6v-115.2c0-17.6 14.4-32 32-32s32 14.4 32 32v224h-224zM326.4 406.4c-12.8 12.8-32 12.8-44.8 0l-217.6-217.6v115.2c0 17.6-14.4 32-32 32s-32-14.4-32-32v-224h224c17.6 0 32 14.4 32 32s-14.4 32-32 32h-115.2l217.6 217.6c12.8 12.8 12.8 32 0 44.8z" horiz-adv-x="736" />
<glyph unicode="&#xe637;" d="M326.4 534.4l-217.6 217.6h115.2c17.6 0 32 14.4 32 32s-14.4 32-32 32h-224v-224c0-17.6 14.4-32 32-32s32 14.4 32 32v115.2l217.6-217.6c6.4-6.4 14.4-9.6 22.4-9.6s16 3.2 22.4 9.6c12.8 12.8 12.8 32 0 44.8zM704 336c-17.6 0-32-14.4-32-32v-115.2l-217.6 217.6c-12.8 12.8-32 12.8-44.8 0s-12.8-32 0-44.8l217.6-217.6h-115.2c-17.6 0-32-14.4-32-32s14.4-32 32-32h224v224c0 17.6-14.4 32-32 32z" horiz-adv-x="736" />
<glyph unicode="&#xe638;" d="M992 256c-17.6 0-32-14.4-32-32v-179.2l-265.6 265.6c-12.8 12.8-32 12.8-44.8 0s-12.8-32 0-44.8l265.6-265.6h-179.2c-17.6 0-32-14.4-32-32s14.4-32 32-32h288v288c0 17.6-14.4 32-32 32zM374.4 630.4l-265.6 265.6h179.2c17.6 0 32 14.4 32 32s-14.4 32-32 32h-288v-288c0-17.6 14.4-32 32-32s32 14.4 32 32v179.2l265.6-265.6c6.4-6.4 14.4-9.6 22.4-9.6s16 3.2 22.4 9.6c12.8 12.8 12.8 32 0 44.8zM374.4 310.4c-12.8 12.8-32 12.8-44.8 0l-265.6-265.6v179.2c0 17.6-14.4 32-32 32s-32-14.4-32-32v-288h288c17.6 0 32 14.4 32 32s-14.4 32-32 32h-179.2l265.6 265.6c12.8 12.8 12.8 32 0 44.8zM736 960c-17.6 0-32-14.4-32-32s14.4-32 32-32h179.2l-265.6-265.6c-12.8-12.8-12.8-32 0-44.8 6.4-6.4 14.4-9.6 22.4-9.6s16 3.2 22.4 9.6l265.6 265.6v-179.2c0-17.6 14.4-32 32-32s32 14.4 32 32v288h-288z" />
<glyph unicode="&#xe639;" d="M288-64h-288v288c0 17.6 14.4 32 32 32s32-14.4 32-32v-224h224c17.6 0 32-14.4 32-32s-14.4-32-32-32zM1024-64h-288c-17.6 0-32 14.4-32 32s14.4 32 32 32h224v224c0 17.6 14.4 32 32 32s32-14.4 32-32v-288zM992 640c17.6 0 32 14.4 32 32v288h-288c-17.6 0-32-14.4-32-32s14.4-32 32-32h179.2l-403.2-403.2-403.2 403.2h179.2c17.6 0 32 14.4 32 32s-14.4 32-32 32h-288v-288c0-17.6 14.4-32 32-32s32 14.4 32 32v179.2l403.2-403.2-457.6-457.6c-12.8-12.8-12.8-32 0-44.8 6.4-6.4 14.4-9.6 22.4-9.6s16 3.2 22.4 9.6l457.6 457.6 457.6-457.6c6.4-6.4 14.4-9.6 22.4-9.6s16 3.2 22.4 9.6c12.8 12.8 12.8 32 0 44.8l-457.6 457.6 403.2 403.2v-179.2c0-17.6 14.4-32 32-32z" />
<glyph unicode="&#xe63a;" d="M852.8 600c-12.8 11.2-33.6 11.2-44.8-3.2-11.2-12.8-11.2-33.6 3.2-44.8l81.6-72h-284.8c-17.6 0-32-14.4-32-32s14.4-32 32-32h283.2l-81.6-72c-12.8-11.2-14.4-32-3.2-44.8 6.4-6.4 14.4-11.2 24-11.2 8 0 14.4 3.2 20.8 8l172.8 152-171.2 152zM416 480h-283.2l81.6 72c12.8 11.2 14.4 32 3.2 44.8s-32 14.4-44.8 3.2l-172.8-152 171.2-152c6.4-4.8 14.4-8 20.8-8 9.6 0 17.6 3.2 24 11.2 11.2 12.8 11.2 33.6-3.2 44.8l-80 72h283.2c17.6 0 32 14.4 32 32s-14.4 32-32 32z" />
<glyph unicode="&#xe63b;" d="M800 256h-576v384h576v-384zM288 320h448v256h-448v-256zM32 672c-17.6 0-32 14.4-32 32v256h352c17.6 0 32-14.4 32-32s-14.4-32-32-32h-288v-192c0-17.6-14.4-32-32-32zM992 672c-17.6 0-32 14.4-32 32v192h-288c-17.6 0-32 14.4-32 32s14.4 32 32 32h352v-256c0-17.6-14.4-32-32-32zM352-64h-352v256c0 17.6 14.4 32 32 32s32-14.4 32-32v-192h288c17.6 0 32-14.4 32-32s-14.4-32-32-32zM1024-64h-352c-17.6 0-32 14.4-32 32s14.4 32 32 32h288v192c0 17.6 14.4 32 32 32s32-14.4 32-32v-256z" />
<glyph unicode="&#xe63c;" d="M308.8 152c-12.8 11.2-33.6 11.2-44.8-3.2l-72-80v283.2c0 17.6-14.4 32-32 32s-32-14.4-32-32v-283.2l-72 81.6c-11.2 12.8-32 14.4-44.8 3.2s-14.4-32-3.2-44.8l152-172.8 152 171.2c11.2 12.8 11.2 33.6-3.2 44.8zM312 788.8l-152 171.2-152-171.2c-11.2-12.8-11.2-33.6 3.2-44.8 12.8-11.2 33.6-11.2 44.8 3.2l72 80v-283.2c0-17.6 14.4-32 32-32s32 14.4 32 32v283.2l72-81.6c6.4-6.4 14.4-11.2 24-11.2 8 0 14.4 3.2 20.8 8 14.4 12.8 14.4 33.6 3.2 46.4z" horiz-adv-x="320" />
<glyph unicode="&#xe63d;" d="M832 308.8c-12.8-12.8-12.8-33.6 0-44.8l75.2-73.6h-132.8c-1.6 0-1.6 0-3.2 0s-1.6 0-3.2 0c-43.2 0-83.2 19.2-110.4 51.2l-67.2 91.2c0 0 0 0 0 0s0 0 0 0l-41.6 56c0 0 0 0 0 0-16 22.4-36.8 41.6-59.2 56 22.4 14.4 43.2 33.6 59.2 56 0 0 0 0 0 0v0c0 0 0 0 0 0s0 0 0 0l107.2 147.2c27.2 33.6 67.2 51.2 110.4 51.2 1.6 0 1.6 0 3.2 0s1.6 0 3.2 0h132.8l-73.6-70.4c-12.8-12.8-12.8-32 0-44.8 6.4-6.4 14.4-9.6 22.4-9.6s16 3.2 22.4 9.6l153.6 150.4-153.6 150.4c-12.8 12.8-33.6 12.8-44.8 0-12.8-12.8-12.8-33.6 0-44.8l75.2-73.6h-132.8c-1.6 0-1.6 0-3.2 0s-1.6 0-3.2 0c-62.4 0-120-27.2-160-75.2 0 0 0 0 0-1.6 0 0 0 0 0 0l-108.8-148.8c0 0 0 0 0 0s0 0 0 0c-27.2-38.4-70.4-60.8-118.4-60.8 0 0 0 0 0 0h-342.4c-17.6 0-32-14.4-32-32s14.4-32 32-32h340.8c0 0 0 0 0 0 46.4 0 91.2-22.4 118.4-60.8 0 0 0 0 0 0s0 0 0 0l41.6-56c0 0 0 0 0 0l67.2-92.8c0 0 0 0 0 0s0 0 0-1.6c40-48 97.6-75.2 160-75.2 1.6 0 1.6 0 3.2 0s1.6 0 3.2 0h132.8l-73.6-76.8c-12.8-12.8-12.8-32 0-44.8 6.4-6.4 14.4-9.6 22.4-9.6s16 3.2 22.4 9.6l153.6 150.4-153.6 150.4c-12.8 12.8-32 12.8-44.8 0z" />
<glyph unicode="&#xe63e;" d="M768 704c-147.2 0-219.2-128-283.2-240-60.8-107.2-118.4-208-228.8-208-105.6 0-192 86.4-192 192s86.4 192 192 192c0 0 1.6 0 1.6 0 40 0 73.6-16 105.6-43.2l-113.6-20.8c-17.6-3.2-28.8-19.2-25.6-36.8 3.2-16 16-25.6 32-25.6 1.6 0 3.2 0 6.4 0l220.8 41.6-68.8 224c-4.8 17.6-22.4 25.6-40 20.8s-27.2-22.4-20.8-40l28.8-96c-35.2 24-76.8 40-126.4 40-1.6 0-4.8 0-6.4 0-137.6-4.8-249.6-116.8-249.6-256 0-140.8 115.2-256 256-256 147.2 0 219.2 128 283.2 240 60.8 107.2 118.4 208 228.8 208 105.6 0 192-86.4 192-192s-84.8-190.4-188.8-192c-1.6 0-1.6 0-3.2 0-57.6 0-104 25.6-148.8 83.2-11.2 14.4-30.4 16-44.8 4.8s-16-30.4-4.8-44.8c57.6-72 118.4-105.6 193.6-107.2 1.6 0 3.2 0 4.8 0 140.8 0 256 115.2 256 256s-115.2 256-256 256z" />
<glyph unicode="&#xe63f;" d="M768 704c-147.2 0-219.2-128-283.2-240-60.8-107.2-118.4-208-228.8-208-105.6 0-192 86.4-192 192s86.4 192 192 192c1.6 0 1.6 0 1.6 0 56 0 102.4-27.2 147.2-84.8 6.4-8 16-12.8 25.6-12.8 6.4 0 14.4 1.6 19.2 6.4 14.4 11.2 16 30.4 4.8 44.8-57.6 76.8-120 110.4-198.4 110.4-1.6 0-4.8 0-6.4 0-137.6-4.8-249.6-116.8-249.6-256 0-140.8 115.2-256 256-256 147.2 0 219.2 128 283.2 240 60.8 107.2 118.4 208 228.8 208 105.6 0 192-86.4 192-192s-84.8-190.4-188.8-192c-1.6 0-1.6 0-3.2 0-57.6 0-104 25.6-148.8 83.2-11.2 14.4-30.4 16-44.8 4.8s-16-30.4-4.8-44.8c57.6-72 118.4-105.6 193.6-107.2 1.6 0 3.2 0 4.8 0 140.8 0 256 115.2 256 256s-115.2 256-256 256z" />
<glyph unicode="&#xe640;" d="M512-64c-281.6 0-512 230.4-512 512s230.4 512 512 512 512-230.4 512-512-230.4-512-512-512zM512 896c-246.4 0-448-201.6-448-448s201.6-448 448-448 448 201.6 448 448-201.6 448-448 448zM544 224v352h-96v-64h32v-288h-32v-64h128v64zM504 624c14.4 0 28.8 6.4 40 16s16 24 16 40-6.4 28.8-16 40c-20.8 20.8-57.6 20.8-78.4 0-11.2-11.2-16-25.6-16-40s6.4-28.8 16-40c9.6-9.6 24-16 38.4-16z" />
<glyph unicode="&#xe641;" d="M1024 0h-576v288c0 17.6 14.4 32 32 32s32-14.4 32-32v-224h448v768h-448v-224c0-17.6-14.4-32-32-32s-32 14.4-32 32v288h576v-896zM628.8 648c-12.8 11.2-33.6 9.6-44.8-3.2s-9.6-33.6 3.2-44.8l140.8-118.4h-696c-17.6 0-32-14.4-32-32s14.4-32 32-32h696l-139.2-118.4c-12.8-11.2-14.4-32-3.2-44.8 6.4-8 16-11.2 24-11.2s14.4 3.2 20.8 8l233.6 196.8-235.2 200z" />
<glyph unicode="&#xe642;" d="M1024 880h-736v-288h-288v-576h736v288h288v576zM64 80v448h608v-185.6c0-1.6 0-4.8 0-6.4s0-4.8 0-6.4v-249.6h-608zM960 368h-224v224h-384v224h608v-448z" />
<glyph unicode="&#xe643;" d="M1024 704h-640v192h640v-192zM448 768h512v64h-512v-64zM1024 0h-640v192h640v-192zM448 64h512v64h-512v-64zM1024 352h-640v192h640v-192zM448 416h512v64h-512v-64zM128 672c-70.4 0-128 57.6-128 128s57.6 128 128 128 128-57.6 128-128-57.6-128-128-128zM128 864c-35.2 0-64-28.8-64-64s28.8-64 64-64 64 28.8 64 64-28.8 64-64 64zM128-32c-70.4 0-128 57.6-128 128s57.6 128 128 128 128-57.6 128-128-57.6-128-128-128zM128 160c-35.2 0-64-28.8-64-64s28.8-64 64-64 64 28.8 64 64-28.8 64-64 64zM128 320c-70.4 0-128 57.6-128 128s57.6 128 128 128 128-57.6 128-128-57.6-128-128-128zM128 512c-35.2 0-64-28.8-64-64s28.8-64 64-64 64 28.8 64 64-28.8 64-64 64z" />
<glyph unicode="&#xe644;" d="M256-64h-256v1024h256v-1024zM64 0h128v896h-128v-896zM1024 704h-640v256h640v-256zM448 768h512v128h-512v-128zM1024-64h-640v256h640v-256zM448 0h512v128h-512v-128zM1024 320h-640v256h640v-256zM448 384h512v128h-512v-128z" />
<glyph unicode="&#xe645;" d="M256 704h-256v256h256v-256zM64 768h128v128h-128v-128zM1024 704h-640v256h640v-256zM448 768h512v128h-512v-128zM256-64h-256v256h256v-256zM64 0h128v128h-128v-128zM1024-64h-640v256h640v-256zM448 0h512v128h-512v-128zM256 320h-256v256h256v-256zM64 384h128v128h-128v-128zM1024 320h-640v256h640v-256zM448 384h512v128h-512v-128z" />
<glyph unicode="&#xe646;" d="M384 480h-384v384h384v-384zM64 544h256v256h-256v-256zM384 32h-384v384h384v-384zM64 96h256v256h-256v-256zM960 704h-448c-17.6 0-32 14.4-32 32s14.4 32 32 32h448c17.6 0 32-14.4 32-32s-14.4-32-32-32zM960 512h-448c-17.6 0-32 14.4-32 32s14.4 32 32 32h448c17.6 0 32-14.4 32-32s-14.4-32-32-32zM960 320h-448c-17.6 0-32 14.4-32 32s14.4 32 32 32h448c17.6 0 32-14.4 32-32s-14.4-32-32-32zM960 128h-448c-17.6 0-32 14.4-32 32s14.4 32 32 32h448c17.6 0 32-14.4 32-32s-14.4-32-32-32z" horiz-adv-x="992" />
<glyph unicode="&#xe647;" d="M801.6 684.8c-86.4 110.4-214.4 172.8-353.6 172.8-67.2 0-134.4-14.4-193.6-44.8l32 97.6c4.8 16-3.2 35.2-20.8 40-16 4.8-35.2-3.2-40-20.8l-75.2-225.6 228.8-38.4c1.6 0 3.2 0 4.8 0 16 0 28.8 11.2 32 27.2 3.2 17.6-9.6 33.6-25.6 36.8l-120 20.8c54.4 28.8 115.2 44.8 179.2 44.8 118.4 0 228.8-54.4 302.4-147.2 6.4-8 16-12.8 25.6-12.8 6.4 0 14.4 1.6 19.2 6.4 12.8 9.6 14.4 30.4 4.8 43.2zM1016 377.6l-163.2 176-142.4-180.8c-11.2-14.4-8-33.6 4.8-44.8 6.4-4.8 12.8-6.4 19.2-6.4 9.6 0 19.2 4.8 25.6 12.8l70.4 89.6c0-4.8 0-9.6 0-14.4 0-200-155.2-368-353.6-382.4-17.6-1.6-30.4-16-28.8-33.6 1.6-16 16-28.8 32-28.8 1.6 0 1.6 0 3.2 0 230.4 16 412.8 211.2 412.8 444.8 0 1.6 0 3.2 0 4.8l72-78.4c11.2-12.8 32-14.4 44.8-1.6 14.4 11.2 14.4 30.4 3.2 43.2zM270.4 203.2c-6.4 16-24 25.6-40 19.2s-25.6-24-19.2-40l33.6-99.2c-112 70.4-180.8 193.6-180.8 326.4 0 62.4 14.4 121.6 43.2 177.6 8 16 1.6 35.2-12.8 43.2-16 8-35.2 1.6-43.2-12.8-33.6-64-51.2-136-51.2-208 0-158.4 83.2-302.4 216-382.4l-116.8-20.8c-17.6-3.2-28.8-19.2-25.6-36.8 3.2-16 16-27.2 32-27.2 1.6 0 3.2 0 4.8 0l235.2 41.6-75.2 219.2z" />
<glyph unicode="&#xe648;" d="M708.8 920c-14.4 11.2-33.6 9.6-44.8-4.8s-9.6-33.6 4.8-44.8l126.4-104h-475.2c-176 1.6-320-142.4-320-318.4 0-36.8 6.4-72 17.6-107.2 4.8-12.8 17.6-20.8 30.4-20.8 3.2 0 6.4 0 11.2 1.6 16 6.4 25.6 24 19.2 41.6-9.6 27.2-14.4 56-14.4 84.8 0 140.8 115.2 256 256 256h473.6l-126.4-104c-14.4-11.2-16-32-4.8-44.8 6.4-8 16-11.2 24-11.2 6.4 0 14.4 1.6 20.8 8l227.2 184-225.6 184zM1006.4 555.2c-6.4 16-24 25.6-41.6 19.2-16-6.4-25.6-24-19.2-41.6 9.6-27.2 14.4-56 14.4-84.8 0-140.8-115.2-256-256-256h-473.6l126.4 104c14.4 11.2 16 32 4.8 44.8-11.2 14.4-32 16-44.8 4.8l-225.6-185.6 225.6-184c6.4-4.8 12.8-8 20.8-8 9.6 0 19.2 3.2 24 11.2 11.2 14.4 9.6 33.6-4.8 44.8l-126.4 104h473.6c176 0 320 144 320 320 0 36.8-6.4 72-17.6 107.2z" />
<glyph unicode="&#xe649;" d="M361.6 952c-12.8 11.2-33.6 9.6-44.8-3.2-12.8-12.8-11.2-33.6 3.2-44.8l84.8-72h-240c-91.2 0-164.8-73.6-164.8-163.2v-440c0-89.6 70.4-161.6 158.4-163.2 0 0 0 0 1.6 0 17.6 0 32 14.4 32 30.4 0 17.6-12.8 32-30.4 33.6-54.4 1.6-97.6 44.8-97.6 99.2v440c0 54.4 44.8 99.2 99.2 99.2h240l-83.2-72c-12.8-11.2-14.4-32-3.2-44.8 6.4-8 16-11.2 24-11.2s14.4 3.2 20.8 8l179.2 152-179.2 152zM673.6 832c-17.6 0-33.6-12.8-33.6-30.4s12.8-32 30.4-33.6c54.4-1.6 97.6-44.8 97.6-99.2v-440c0-54.4-44.8-99.2-99.2-99.2h-240l84.8 72c12.8 11.2 14.4 32 3.2 44.8s-32 14.4-44.8 3.2l-180.8-153.6 179.2-152c6.4-4.8 12.8-8 20.8-8 9.6 0 17.6 3.2 24 11.2 11.2 12.8 9.6 33.6-3.2 44.8l-84.8 72h240c91.2 0 164.8 73.6 164.8 164.8v440c0 88-70.4 160-158.4 163.2z" horiz-adv-x="832" />
<glyph unicode="&#xe64a;" d="M864 672h-700.8c-89.6 0-163.2-73.6-163.2-164.8v-152c0-88 70.4-160 160-163.2h128c17.6 0 32 14.4 32 32s-14.4 32-32 32h-126.4c-54.4 1.6-97.6 44.8-97.6 99.2v152c0 54.4 44.8 99.2 99.2 99.2h699.2c54.4-1.6 97.6-44.8 97.6-99.2v-152c0-54.4-44.8-99.2-99.2-99.2h-310.4l112 104c12.8 12.8 14.4 32 1.6 44.8s-32 12.8-44.8 1.6l-196.8-182.4 196.8-184c4.8-4.8 12.8-8 20.8-8s17.6 3.2 24 9.6c12.8 12.8 11.2 33.6-1.6 44.8l-112 104h310.4c89.6 1.6 163.2 75.2 163.2 164.8v152c0 89.6-70.4 161.6-160 164.8z" />
<glyph unicode="&#xe64b;" d="M864 672h-128c-17.6 0-32-14.4-32-32s14.4-32 32-32h126.4c54.4-1.6 97.6-44.8 97.6-99.2v-152c0-54.4-44.8-99.2-99.2-99.2h-699.2c-54.4 0-97.6 44.8-97.6 99.2v152c0 54.4 44.8 99.2 99.2 99.2h310.4l-112-104c-12.8-12.8-14.4-32-1.6-44.8 6.4-6.4 14.4-9.6 24-9.6 8 0 16 3.2 22.4 8l195.2 182.4-195.2 184c-12.8 12.8-33.6 11.2-44.8-1.6-12.8-12.8-11.2-33.6 1.6-44.8l112-104h-312c-89.6-1.6-163.2-75.2-163.2-164.8v-152c0-89.6 70.4-161.6 160-164.8h699.2c91.2 0 164.8 73.6 164.8 164.8v152c0 88-70.4 160-160 163.2z" />
<glyph unicode="&#xe64c;" d="M864 640h-448c-17.6 0-32 14.4-32 32s14.4 32 32 32h448c17.6 0 32-14.4 32-32s-14.4-32-32-32zM864 416h-448c-17.6 0-32 14.4-32 32s14.4 32 32 32h448c17.6 0 32-14.4 32-32s-14.4-32-32-32zM864 192h-448c-17.6 0-32 14.4-32 32s14.4 32 32 32h448c17.6 0 32-14.4 32-32s-14.4-32-32-32zM32 224c-9.6 0-17.6 3.2-24 11.2-11.2 12.8-9.6 33.6 3.2 44.8l195.2 168-195.2 168c-12.8 11.2-14.4 32-3.2 44.8s32 14.4 44.8 3.2l252.8-216-252.8-216c-6.4-4.8-12.8-8-20.8-8z" horiz-adv-x="896" />
<glyph unicode="&#xe64d;" d="M1024-64h-416v416h416v-416zM672 0h288v288h-288v-288zM448-64h-448v1024h1024v-448c0-17.6-14.4-32-32-32s-32 14.4-32 32v384h-896v-896h384c17.6 0 32-14.4 32-32s-14.4-32-32-32zM566.4 438.4l-297.6 297.6h179.2c17.6 0 32 14.4 32 32s-14.4 32-32 32h-288v-288c0-17.6 14.4-32 32-32s32 14.4 32 32v179.2l297.6-297.6c6.4-6.4 14.4-9.6 22.4-9.6s16 3.2 22.4 9.6c12.8 12.8 12.8 32 0 44.8z" />
<glyph unicode="&#xe64e;" d="M416-64h-416v416h416v-416zM64 0h288v288h-288v-288zM1024-64h-448c-17.6 0-32 14.4-32 32s14.4 32 32 32h384v896h-896v-384c0-17.6-14.4-32-32-32s-32 14.4-32 32v448h1024v-1024zM576 800c-17.6 0-32-14.4-32-32s14.4-32 32-32h179.2l-297.6-297.6c-12.8-12.8-12.8-32 0-44.8 6.4-6.4 14.4-9.6 22.4-9.6s16 3.2 22.4 9.6l297.6 297.6v-179.2c0-17.6 14.4-32 32-32s32 14.4 32 32v288h-288z" />
<glyph unicode="&#xe64f;" d="M736 288h-448v320h448v-320zM352 352h320v192h-320v-192zM246.4 694.4l-137.6 137.6h115.2c17.6 0 32 14.4 32 32s-14.4 32-32 32h-224v-224c0-17.6 14.4-32 32-32s32 14.4 32 32v115.2l137.6-137.6c6.4-6.4 14.4-9.6 22.4-9.6s16 3.2 22.4 9.6c12.8 12.8 12.8 32 0 44.8zM800 896c-17.6 0-32-14.4-32-32s14.4-32 32-32h115.2l-137.6-137.6c-12.8-12.8-12.8-32 0-44.8 6.4-6.4 14.4-9.6 22.4-9.6s16 3.2 22.4 9.6l137.6 137.6v-115.2c0-17.6 14.4-32 32-32s32 14.4 32 32v224h-224zM224 64h-115.2l137.6 137.6c12.8 12.8 12.8 32 0 44.8s-32 12.8-44.8 0l-137.6-137.6v115.2c0 17.6-14.4 32-32 32s-32-14.4-32-32v-224h224c17.6 0 32 14.4 32 32s-14.4 32-32 32zM992 256c-17.6 0-32-14.4-32-32v-115.2l-137.6 137.6c-12.8 12.8-32 12.8-44.8 0s-12.8-32 0-44.8l137.6-137.6h-115.2c-17.6 0-32-14.4-32-32s14.4-32 32-32h224v224c0 17.6-14.4 32-32 32z" />
<glyph unicode="&#xe650;" d="M704 320h-384v256h384v-256zM384 384h256v128h-256v-128zM256 864c-17.6 0-32-14.4-32-32v-115.2l-169.6 169.6c-12.8 12.8-32 12.8-44.8 0s-12.8-32 0-44.8l169.6-169.6h-115.2c-17.6 0-32-14.4-32-32s14.4-32 32-32h224v224c0 17.6-14.4 32-32 32zM1014.4 886.4c-12.8 12.8-32 12.8-44.8 0l-169.6-169.6v115.2c0 17.6-14.4 32-32 32s-32-14.4-32-32v-224h224c17.6 0 32 14.4 32 32s-14.4 32-32 32h-115.2l169.6 169.6c12.8 12.8 12.8 32 0 44.8zM64 288c-17.6 0-32-14.4-32-32s14.4-32 32-32h115.2l-169.6-169.6c-12.8-12.8-12.8-32 0-44.8 6.4-6.4 14.4-9.6 22.4-9.6s16 3.2 22.4 9.6l169.6 169.6v-115.2c0-17.6 14.4-32 32-32s32 14.4 32 32v224h-224zM1014.4 54.4l-169.6 169.6h115.2c17.6 0 32 14.4 32 32s-14.4 32-32 32h-224v-224c0-17.6 14.4-32 32-32s32 14.4 32 32v115.2l169.6-169.6c6.4-6.4 14.4-9.6 22.4-9.6s16 3.2 22.4 9.6c12.8 12.8 12.8 32 0 44.8z" />
<glyph unicode="&#xe651;" d="M512-64c-281.6 0-512 230.4-512 512s230.4 512 512 512 512-230.4 512-512-230.4-512-512-512zM512 896c-246.4 0-448-201.6-448-448s201.6-448 448-448 448 201.6 448 448-201.6 448-448 448zM768 416h-512c-17.6 0-32 14.4-32 32s14.4 32 32 32h512c17.6 0 32-14.4 32-32s-14.4-32-32-32z" />
<glyph unicode="&#xe652;" d="M1024-64h-1024v1024h1024v-1024zM64 0h896v896h-896v-896zM768 416h-512c-17.6 0-32 14.4-32 32s14.4 32 32 32h512c17.6 0 32-14.4 32-32s-14.4-32-32-32z" />
<glyph unicode="&#xe653;" d="M4.8 3.2v123.2c0 347.2 161.6 529.6 480 544v222.4l534.4-382.4-534.4-382.4v222.4c-152-1.6-294.4-16-420.8-240l-59.2-107.2zM548.8 768v-161.6h-32c-344-3.2-424-214.4-443.2-366.4 139.2 174.4 299.2 174.4 441.6 174.4h32v-161.6l361.6 257.6-360 257.6z" />
<glyph unicode="&#xe654;" d="M745.6 664l-393.6 268.8v-172.8c-352-20.8-352-316.8-352-416v-121.6l59.2 105.6c43.2 76.8 86.4 120 132.8 144v-480h832v672h-278.4zM72 456c20.8 129.6 92.8 238.4 313.6 240h32v115.2l262.4-179.2-264-179.2v115.2h-32c-104 0-212.8 0-312-112zM960 56h-704v440c30.4 6.4 62.4 8 96 8v-172.8l393.6 268.8h214.4v-544z" />
<glyph unicode="&#xe655;" d="M694.4 632c-12.8 12.8-33.6 11.2-44.8-1.6-12.8-12.8-11.2-33.6 1.6-44.8l78.4-72h-377.6c-70.4 0-128-57.6-128-128s57.6-128 128-128c17.6 0 32 14.4 32 32s-14.4 32-32 32c-35.2 0-64 28.8-64 64s28.8 64 64 64h376l-78.4-72c-12.8-12.8-12.8-32-1.6-44.8 6.4-6.4 14.4-9.6 24-9.6 8 0 16 3.2 22.4 8l161.6 148.8-161.6 152zM512-64c-281.6 0-512 230.4-512 512s230.4 512 512 512 512-230.4 512-512-230.4-512-512-512zM512 896c-246.4 0-448-201.6-448-448s201.6-448 448-448 448 201.6 448 448-201.6 448-448 448z" />
<glyph unicode="&#xe656;" d="M992 206.4h-720c-115.2 0-208 92.8-208 208s92.8 208 208 208h620.8l-145.6-136c-12.8-12.8-12.8-32-1.6-44.8 6.4-6.4 14.4-9.6 24-9.6 8 0 16 3.2 22.4 8l230.4 216-232 214.4c-12.8 12.8-33.6 11.2-44.8-1.6-12.8-12.8-11.2-33.6 1.6-44.8l145.6-136h-620.8c-150.4 0-272-121.6-272-272s121.6-272 272-272h720c17.6 0 32 14.4 32 32s-14.4 30.4-32 30.4z" />
<glyph unicode="&#xe657;" d="M572.8 0h-576v896h576v-288c0-17.6-14.4-32-32-32s-32 14.4-32 32v224h-448v-768h448v224c0 17.6 14.4 32 32 32s32-14.4 32-32v-288zM785.6 648c-12.8 11.2-33.6 9.6-44.8-3.2s-9.6-33.6 3.2-44.8l140.8-118.4h-664c-17.6 0-32-14.4-32-32s14.4-32 32-32h664l-139.2-118.4c-12.8-11.2-14.4-32-3.2-44.8 6.4-8 16-11.2 24-11.2s14.4 3.2 20.8 8l233.6 196.8-235.2 200z" />
<glyph unicode="&#xe658;" d="M512-64c-281.6 0-512 230.4-512 512s230.4 512 512 512 512-230.4 512-512-230.4-512-512-512zM512 896c-246.4 0-448-201.6-448-448s201.6-448 448-448 448 201.6 448 448-201.6 448-448 448zM768 480h-224v224c0 17.6-14.4 32-32 32s-32-14.4-32-32v-224h-224c-17.6 0-32-14.4-32-32s14.4-32 32-32h224v-224c0-17.6 14.4-32 32-32s32 14.4 32 32v224h224c17.6 0 32 14.4 32 32s-14.4 32-32 32z" />
<glyph unicode="&#xe659;" d="M1024-64h-1024v1024h1024v-1024zM64 0h896v896h-896v-896zM768 480h-224v224c0 17.6-14.4 32-32 32s-32-14.4-32-32v-224h-224c-17.6 0-32-14.4-32-32s14.4-32 32-32h224v-224c0-17.6 14.4-32 32-32s32 14.4 32 32v224h224c17.6 0 32 14.4 32 32s-14.4 32-32 32z" />
<glyph unicode="&#xe65a;" d="M416 16c-228.8 0-416 187.2-416 416 0 147.2 80 286.4 208 360 16 9.6 35.2 3.2 43.2-11.2 9.6-16 3.2-35.2-11.2-43.2-108.8-64-176-180.8-176-305.6 0-193.6 158.4-352 352-352s352 158.4 352 352c0 124.8-67.2 241.6-176 305.6-16 9.6-20.8 28.8-11.2 43.2s28.8 20.8 43.2 11.2c128-73.6 208-212.8 208-360 0-228.8-187.2-416-416-416zM416 432c-17.6 0-32 14.4-32 32v384c0 17.6 14.4 32 32 32s32-14.4 32-32v-384c0-17.6-14.4-32-32-32z" horiz-adv-x="832" />
<glyph unicode="&#xe65b;" d="M512-64c-281.6 0-512 230.4-512 512s230.4 512 512 512 512-230.4 512-512-230.4-512-512-512zM512 896c-246.4 0-448-201.6-448-448s201.6-448 448-448 448 201.6 448 448-201.6 448-448 448zM512 288c-17.6 0-32 14.4-32 32v12.8c0 38.4 4.8 73.6 68.8 137.6 52.8 52.8 59.2 81.6 59.2 105.6 0 1.6-1.6 96-96 96-91.2 0-112-68.8-112-96 0-17.6-14.4-32-32-32s-32 14.4-32 32c0 62.4 48 160 176 160 116.8 0 160-97.6 160-160 0-51.2-24-96-78.4-150.4-49.6-49.6-49.6-70.4-49.6-92.8v-12.8c0-17.6-14.4-32-32-32zM512 160c-12.8 0-25.6 4.8-33.6 14.4-9.6 8-14.4 20.8-14.4 33.6s4.8 25.6 14.4 33.6c17.6 17.6 49.6 17.6 67.2 0 9.6-9.6 14.4-20.8 14.4-33.6s-4.8-25.6-14.4-33.6c-8-9.6-20.8-14.4-33.6-14.4z" />
<glyph unicode="&#xe65c;" d="M622.4 80h401.6l-209.6 368c-8 16-28.8 20.8-43.2 11.2-16-8-20.8-28.8-11.2-43.2l155.2-272h-292.8l73.6 73.6c12.8 12.8 12.8 32 0 44.8s-32 12.8-44.8 0l-128-128c0 0 0 0 0 0l-24-22.4 22.4-22.4c0 0 0 0 0 0l128-128c6.4-6.4 14.4-9.6 22.4-9.6s16 3.2 22.4 9.6c12.8 12.8 12.8 32 0 44.8l-72 73.6zM798.4 708.8c6.4 16-3.2 35.2-19.2 41.6s-35.2-3.2-41.6-19.2l-33.6-91.2-192 336-192-336c-8-16-3.2-35.2 11.2-43.2 16-8 35.2-3.2 43.2 11.2l137.6 240 134.4-233.6-92.8 25.6c-17.6 4.8-35.2-4.8-40-22.4s4.8-35.2 22.4-40l193.6-54.4 8 22.4c3.2 4.8 4.8 9.6 4.8 14.4l56 148.8zM384 144h-273.6l144 251.2 20.8-83.2c3.2-14.4 16-24 30.4-24 3.2 0 4.8 0 8 1.6 17.6 4.8 27.2 22.4 22.4 38.4l-41.6 158.4c0 0 0 0 0 1.6l-6.4 30.4-200-56c-17.6-4.8-27.2-22.4-22.4-40s22.4-27.2 40-22.4l92.8 25.6-198.4-345.6h384c17.6 0 32 14.4 32 32s-14.4 32-32 32z" />
<glyph unicode="&#xe65d;" d="M793.6 731.2c-75.2 75.2-176 116.8-283.2 116.8-209.6 0-380.8-161.6-398.4-366.4l-54.4 80c-9.6 14.4-28.8 19.2-43.2 9.6s-19.2-30.4-9.6-44.8l128-190.4 169.6 153.6c12.8 11.2 14.4 32 1.6 44.8-11.2 12.8-32 14.4-44.8 1.6l-83.2-75.2c6.4 179.2 153.6 323.2 334.4 323.2 89.6 0 174.4-35.2 236.8-97.6 12.8-12.8 32-12.8 44.8 0 14.4 11.2 14.4 32 1.6 44.8zM1019.2 392l-128 190.4-169.6-153.6c-12.8-11.2-14.4-32-1.6-44.8 11.2-12.8 32-14.4 44.8-1.6l81.6 73.6c0-3.2 0-4.8 0-8 0-185.6-150.4-336-336-336-89.6 0-174.4 35.2-238.4 99.2-12.8 12.8-32 12.8-44.8 0s-12.8-32 0-44.8c75.2-75.2 176-116.8 283.2-116.8 217.6 0 395.2 174.4 400 390.4l54.4-81.6c6.4-9.6 16-14.4 27.2-14.4 6.4 0 12.8 1.6 17.6 4.8 14.4 8 19.2 27.2 9.6 43.2z" />
<glyph unicode="&#xe65e;" d="M793.6 731.2c-75.2 75.2-176 116.8-283.2 116.8-209.6 0-380.8-161.6-398.4-366.4l-54.4 80c-9.6 14.4-28.8 19.2-43.2 9.6s-19.2-30.4-9.6-44.8l128-190.4 169.6 153.6c12.8 11.2 14.4 32 1.6 44.8-11.2 12.8-32 14.4-44.8 1.6l-83.2-75.2c6.4 179.2 153.6 323.2 334.4 323.2 89.6 0 174.4-35.2 236.8-97.6 12.8-12.8 32-12.8 44.8 0 14.4 11.2 14.4 32 1.6 44.8zM1019.2 392l-128 190.4-169.6-153.6c-12.8-11.2-14.4-32-1.6-44.8 11.2-12.8 32-14.4 44.8-1.6l81.6 73.6c0-3.2 0-4.8 0-8 0-185.6-150.4-336-336-336-89.6 0-174.4 35.2-238.4 97.6-12.8 12.8-32 12.8-44.8 0s-12.8-32 0-44.8c75.2-75.2 176-116.8 283.2-116.8 217.6 0 395.2 174.4 400 390.4l54.4-81.6c6.4-9.6 16-14.4 27.2-14.4 6.4 0 12.8 1.6 17.6 4.8 14.4 9.6 19.2 28.8 9.6 44.8zM512 320c-70.4 0-128 57.6-128 128s57.6 128 128 128 128-57.6 128-128-57.6-128-128-128zM512 512c-35.2 0-64-28.8-64-64s28.8-64 64-64 64 28.8 64 64-28.8 64-64 64z" />
<glyph unicode="&#xe65f;" d="M576 896c-233.6 0-427.2-180.8-446.4-409.6l-70.4 107.2c-9.6 14.4-30.4 19.2-44.8 9.6-14.4-11.2-19.2-30.4-9.6-44.8l148.8-222.4 204.8 185.6c12.8 11.2 14.4 32 1.6 44.8-11.2 12.8-32 14.4-44.8 1.6l-123.2-112c4.8 208 174.4 376 384 376 211.2 0 384-172.8 384-384s-172.8-384-384-384c-102.4 0-198.4 40-272 112-12.8 12.8-32 12.8-44.8 0s-12.8-32 0-44.8c84.8-84.8 196.8-131.2 316.8-131.2 246.4 0 448 201.6 448 448s-201.6 448-448 448z" />
<glyph unicode="&#xe660;" d="M1024 480c0 246.4-201.6 448-448 448-233.6 0-427.2-180.8-446.4-409.6l-70.4 107.2c-9.6 14.4-30.4 19.2-44.8 9.6-14.4-11.2-19.2-30.4-9.6-44.8l148.8-222.4 204.8 185.6c12.8 11.2 14.4 32 1.6 44.8s-32 14.4-44.8 1.6l-123.2-112c4.8 208 174.4 376 384 376 211.2 0 384-172.8 384-384 0-201.6-155.2-366.4-352-382.4v30.4c0 17.6-14.4 32-32 32s-32-14.4-32-32v-128c0-17.6 14.4-32 32-32s32 14.4 32 32v33.6c232 16 416 209.6 416 446.4z" />
<glyph unicode="&#xe661;" d="M576 896c-233.6 0-427.2-180.8-446.4-409.6l-70.4 107.2c-9.6 14.4-30.4 19.2-44.8 9.6-14.4-11.2-19.2-30.4-9.6-44.8l148.8-222.4 204.8 185.6c12.8 11.2 14.4 32 1.6 44.8-11.2 12.8-32 14.4-44.8 1.6l-123.2-112c4.8 208 174.4 376 384 376 211.2 0 384-172.8 384-384s-172.8-384-384-384c-17.6 0-32-14.4-32-32s14.4-32 32-32c246.4 0 448 201.6 448 448s-201.6 448-448 448zM752 368h-224v304c0 17.6 14.4 32 32 32s32-14.4 32-32v-240h160c17.6 0 32-14.4 32-32s-14.4-32-32-32z" />
<glyph unicode="&#xe662;" d="M480 640h-448c-17.6 0-32 14.4-32 32s14.4 32 32 32h448c17.6 0 32-14.4 32-32s-14.4-32-32-32zM480 416h-448c-17.6 0-32 14.4-32 32s14.4 32 32 32h448c17.6 0 32-14.4 32-32s-14.4-32-32-32zM480 192h-448c-17.6 0-32 14.4-32 32s14.4 32 32 32h448c17.6 0 32-14.4 32-32s-14.4-32-32-32zM864 224c-8 0-14.4 3.2-20.8 8l-252.8 216 252.8 216c12.8 11.2 33.6 9.6 44.8-3.2s9.6-33.6-3.2-44.8l-195.2-168 195.2-168c12.8-11.2 14.4-32 3.2-44.8-6.4-8-14.4-11.2-24-11.2z" horiz-adv-x="896" />
<glyph unicode="&#xe663;" d="M790.4 102.4l-249.6 251.2c41.6 51.2 67.2 118.4 67.2 190.4 0 168-136 304-304 304s-304-136-304-304 136-304 304-304c72 0 139.2 25.6 190.4 67.2l249.6-249.6c8-6.4 16-9.6 24-9.6s16 3.2 22.4 9.6c12.8 12.8 12.8 32 0 44.8zM64 544c0 132.8 107.2 240 240 240s240-107.2 240-240-107.2-240-240-240-240 107.2-240 240z" horiz-adv-x="800" />
<glyph unicode="&#xe664;" d="M448-64l-12.8 4.8c-300.8 126.4-435.2 409.6-435.2 635.2v384h896v-384c0-227.2-134.4-510.4-435.2-635.2l-12.8-4.8zM64 896v-320c0-150.4 81.6-436.8 384-569.6 302.4 129.6 384 417.6 384 569.6v320h-768zM492.8 512l137.6 137.6c12.8 12.8 12.8 32 0 44.8s-32 12.8-44.8 0l-137.6-137.6-137.6 137.6c-12.8 12.8-32 12.8-44.8 0s-12.8-32 0-44.8l137.6-137.6-137.6-137.6c-12.8-12.8-12.8-32 0-44.8 6.4-6.4 14.4-9.6 22.4-9.6s16 3.2 22.4 9.6l137.6 137.6 137.6-137.6c6.4-6.4 14.4-9.6 22.4-9.6s16 3.2 22.4 9.6c12.8 12.8 12.8 32 0 44.8l-137.6 137.6z" horiz-adv-x="896" />
<glyph unicode="&#xe665;" d="M448-64l-12.8 4.8c-300.8 126.4-435.2 409.6-435.2 635.2v384h896v-384c0-227.2-134.4-510.4-435.2-635.2l-12.8-4.8zM64 896v-320c0-150.4 81.6-436.8 384-569.6 302.4 129.6 384 417.6 384 569.6v320h-768zM416 339.2l-166.4 166.4c-12.8 12.8-12.8 32 0 44.8s32 12.8 44.8 0l121.6-121.6 233.6 233.6c12.8 12.8 32 12.8 44.8 0s12.8-32 0-44.8l-278.4-278.4z" horiz-adv-x="896" />
<glyph unicode="&#xe666;" d="M443.2 576l-41.6 56c0 0 0 0 0 0-38.4 56-102.4 88-169.6 88-1.6 0-1.6 0-3.2 0s-1.6 0-3.2 0h-192c-17.6 0-32-14.4-32-32s14.4-32 32-32h192c1.6 0 1.6 0 3.2 0s1.6 0 3.2 0c46.4 0 91.2-22.4 118.4-60.8 0 0 0 0 0 0s0 0 0 0l41.6-56c6.4-8 16-12.8 25.6-12.8 6.4 0 12.8 1.6 19.2 6.4 14.4 9.6 17.6 30.4 6.4 43.2zM872 360c-12.8 12.8-33.6 12.8-44.8 0-12.8-12.8-12.8-33.6 0-44.8l75.2-73.6h-132.8c-1.6 0-1.6 0-3.2 0s-1.6 0-3.2 0c-43.2 0-83.2 19.2-110.4 51.2l-46.4 62.4c-11.2 14.4-30.4 17.6-44.8 6.4s-17.6-30.4-6.4-44.8l46.4-64c0 0 0 0 0 0s0 0 0-1.6c40-48 97.6-75.2 160-75.2 1.6 0 1.6 0 3.2 0s1.6 0 3.2 0h132.8l-75.2-73.6c-12.8-12.8-12.8-32 0-44.8 6.4-6.4 14.4-9.6 22.4-9.6s16 3.2 22.4 9.6l153.6 150.4-152 152zM872 840c-12.8 12.8-33.6 12.8-44.8 0-12.8-12.8-12.8-33.6 0-44.8l75.2-73.6h-132.8c-1.6 0-1.6 0-3.2 0s-1.6 0-3.2 0c-62.4 0-120-27.2-160-75.2 0 0 0 0 0 0s0 0 0 0l-252.8-344c0 0 0 0 0 0s0 0 0 0c-27.2-38.4-70.4-60.8-118.4-60.8-1.6 0-1.6 0-3.2 0s-1.6 0-3.2 0h-192c-17.6 0-32-14.4-32-32s14.4-32 32-32h192c1.6 0 1.6 0 3.2 0s1.6 0 3.2 0c67.2 0 131.2 32 169.6 88 0 0 0 0 0 0v0c0 0 0 0 0 0s0 0 0 0l249.6 339.2c27.2 33.6 67.2 51.2 110.4 51.2 1.6 0 1.6 0 3.2 0s1.6 0 3.2 0h132.8l-75.2-73.6c-12.8-12.8-12.8-32 0-44.8 6.4-6.4 14.4-9.6 22.4-9.6s16 3.2 22.4 9.6l153.6 150.4-152 152z" />
<glyph unicode="&#xe667;" d="M160 187.2v676.8c0 17.6-14.4 32-32 32s-32-14.4-32-32v-676.8c-54.4-14.4-96-64-96-123.2 0-70.4 57.6-128 128-128s128 57.6 128 128c0 59.2-41.6 108.8-96 123.2zM128 0c-35.2 0-64 28.8-64 64s28.8 64 64 64 64-28.8 64-64-28.8-64-64-64zM640 448c0 59.2-41.6 108.8-96 123.2v292.8c0 17.6-14.4 32-32 32s-32-14.4-32-32v-292.8c-54.4-14.4-96-64-96-123.2s41.6-108.8 96-123.2v-292.8c0-17.6 14.4-32 32-32s32 14.4 32 32v292.8c54.4 14.4 96 64 96 123.2zM512 384c-35.2 0-64 28.8-64 64s28.8 64 64 64c0 0 0 0 0 0s0 0 0 0c35.2 0 64-28.8 64-64s-28.8-64-64-64zM1024 832c0 70.4-57.6 128-128 128s-128-57.6-128-128c0-59.2 41.6-108.8 96-123.2v-676.8c0-17.6 14.4-32 32-32s32 14.4 32 32v676.8c54.4 14.4 96 64 96 123.2zM896 768c-35.2 0-64 28.8-64 64s28.8 64 64 64 64-28.8 64-64-28.8-64-64-64z" />
<glyph unicode="&#xe668;" d="M608 480h-64v384c0 17.6-14.4 32-32 32s-32-14.4-32-32v-384h-64c-17.6 0-32-14.4-32-32s14.4-32 32-32h64v-384c0-17.6 14.4-32 32-32s32 14.4 32 32v384h64c17.6 0 32 14.4 32 32s-14.4 32-32 32zM992 768h-64v96c0 17.6-14.4 32-32 32s-32-14.4-32-32v-96h-64c-17.6 0-32-14.4-32-32s14.4-32 32-32h64v-672c0-17.6 14.4-32 32-32s32 14.4 32 32v672h64c17.6 0 32 14.4 32 32s-14.4 32-32 32zM224 96h-64v768c0 17.6-14.4 32-32 32s-32-14.4-32-32v-768h-64c-17.6 0-32-14.4-32-32s14.4-32 32-32h192c17.6 0 32 14.4 32 32s-14.4 32-32 32z" />
<glyph unicode="&#xe669;" d="M768 240h-512v416h512v-416zM320 304h384v288h-384v-288zM160 208c-17.6 0-32 14.4-32 32v416c0 17.6 14.4 32 32 32s32-14.4 32-32v-416c0-17.6-14.4-32-32-32zM32 144c-17.6 0-32 14.4-32 32v544c0 17.6 14.4 32 32 32s32-14.4 32-32v-544c0-17.6-14.4-32-32-32zM864 208c-17.6 0-32 14.4-32 32v416c0 17.6 14.4 32 32 32s32-14.4 32-32v-416c0-17.6-14.4-32-32-32zM992 144c-17.6 0-32 14.4-32 32v544c0 17.6 14.4 32 32 32s32-14.4 32-32v-544c0-17.6-14.4-32-32-32z" />
<glyph unicode="&#xe66a;" d="M864 480h-384v347.2l72-81.6c11.2-12.8 32-14.4 44.8-3.2s14.4 32 3.2 44.8l-152 172.8-152-171.2c-11.2-12.8-11.2-33.6 3.2-44.8 6.4-4.8 14.4-8 20.8-8 9.6 0 17.6 3.2 24 11.2l72 80v-347.2h-384c-17.6 0-32-14.4-32-32s14.4-32 32-32h384v-348.8l-72 81.6c-11.2 12.8-32 14.4-44.8 3.2s-14.4-32-3.2-44.8l152-171.2 152 171.2c11.2 12.8 11.2 33.6-3.2 44.8-12.8 11.2-33.6 11.2-44.8-3.2l-72-80v347.2h384c17.6 0 32 14.4 32 32s-14.4 32-32 32z" horiz-adv-x="896" />
<glyph unicode="&#xe66b;" d="M736 544h-320v283.2l72-81.6c11.2-12.8 32-14.4 44.8-3.2s14.4 32 3.2 44.8l-152 172.8-152-171.2c-11.2-12.8-11.2-33.6 3.2-44.8 6.4-4.8 14.4-8 20.8-8 9.6 0 17.6 3.2 24 11.2l72 80v-283.2h-320c-17.6 0-32-14.4-32-32s14.4-32 32-32h704c17.6 0 32 14.4 32 32s-14.4 32-32 32zM736 416h-704c-17.6 0-32-14.4-32-32s14.4-32 32-32h320v-284.8l-72 81.6c-11.2 12.8-32 14.4-44.8 3.2s-14.4-32-3.2-44.8l152-171.2 152 171.2c11.2 12.8 11.2 33.6-3.2 44.8-12.8 11.2-33.6 11.2-44.8-3.2l-72-80v283.2h320c17.6 0 32 14.4 32 32s-14.4 32-32 32z" horiz-adv-x="768" />
<glyph unicode="&#xe66c;" d="M852.8 600c-12.8 11.2-33.6 11.2-44.8-3.2-11.2-12.8-11.2-33.6 3.2-44.8l81.6-72h-348.8v384c0 17.6-14.4 32-32 32s-32-14.4-32-32v-384h-347.2l81.6 72c12.8 11.2 14.4 32 3.2 44.8s-32 14.4-44.8 3.2l-172.8-152 171.2-152c6.4-4.8 14.4-8 20.8-8 9.6 0 17.6 3.2 24 11.2 11.2 12.8 11.2 33.6-3.2 44.8l-80 72h347.2v-384c0-17.6 14.4-32 32-32s32 14.4 32 32v384h347.2l-81.6-72c-12.8-11.2-14.4-32-3.2-44.8 6.4-6.4 14.4-11.2 24-11.2 8 0 14.4 3.2 20.8 8l172.8 152-171.2 152z" />
<glyph unicode="&#xe66d;" d="M448 832c-17.6 0-32-14.4-32-32v-320h-283.2l81.6 72c12.8 11.2 14.4 32 3.2 44.8s-32 14.4-44.8 3.2l-172.8-152 171.2-152c6.4-4.8 14.4-8 20.8-8 9.6 0 17.6 3.2 24 11.2 11.2 12.8 11.2 33.6-3.2 44.8l-80 72h283.2v-320c0-17.6 14.4-32 32-32s32 14.4 32 32v704c0 17.6-14.4 32-32 32zM852.8 600c-12.8 11.2-33.6 11.2-44.8-3.2-11.2-12.8-11.2-33.6 3.2-44.8l81.6-72h-284.8v320c0 17.6-14.4 32-32 32s-32-14.4-32-32v-704c0-17.6 14.4-32 32-32s32 14.4 32 32v320h284.8l-81.6-72c-12.8-11.2-14.4-32-3.2-44.8 6.4-6.4 14.4-11.2 24-11.2 8 0 14.4 3.2 20.8 8l171.2 152-171.2 152z" />
<glyph unicode="&#xe66e;" d="M828.8-32l-316.8 177.6-316.8-177.6 70.4 356.8-265.6 246.4 360 43.2 152 328 152-329.6 360-41.6-265.6-248 70.4-355.2zM512 217.6l227.2-126.4-51.2 256 190.4 176-259.2 30.4-107.2 236.8-108.8-236.8-259.2-30.4 190.4-176-51.2-256 228.8 126.4z" />
<glyph unicode="&#xe66f;" d="M448 512h-448v448h448v-448zM64 576h320v320h-320v-320zM448-64h-448v448h448v-448zM64 0h320v320h-320v-320zM1024 512h-448v448h448v-448zM640 576h320v320h-320v-320zM1024-64h-448v448h448v-448zM640 0h320v320h-320v-320z" />
<glyph unicode="&#xe670;" d="M128 704c-70.4 0-128 57.6-128 128s57.6 128 128 128 128-57.6 128-128-57.6-128-128-128zM128 896c-35.2 0-64-28.8-64-64s28.8-64 64-64 64 28.8 64 64-28.8 64-64 64zM896 704c-70.4 0-128 57.6-128 128s57.6 128 128 128 128-57.6 128-128-57.6-128-128-128zM896 896c-35.2 0-64-28.8-64-64s28.8-64 64-64 64 28.8 64 64-28.8 64-64 64zM512 704c-70.4 0-128 57.6-128 128s57.6 128 128 128 128-57.6 128-128-57.6-128-128-128zM512 896c-35.2 0-64-28.8-64-64s28.8-64 64-64 64 28.8 64 64-28.8 64-64 64zM128-64c-70.4 0-128 57.6-128 128s57.6 128 128 128 128-57.6 128-128-57.6-128-128-128zM128 128c-35.2 0-64-28.8-64-64s28.8-64 64-64 64 28.8 64 64-28.8 64-64 64zM896-64c-70.4 0-128 57.6-128 128s57.6 128 128 128 128-57.6 128-128-57.6-128-128-128zM896 128c-35.2 0-64-28.8-64-64s28.8-64 64-64 64 28.8 64 64-28.8 64-64 64zM512-64c-70.4 0-128 57.6-128 128s57.6 128 128 128 128-57.6 128-128-57.6-128-128-128zM512 128c-35.2 0-64-28.8-64-64s28.8-64 64-64 64 28.8 64 64-28.8 64-64 64zM128 320c-70.4 0-128 57.6-128 128s57.6 128 128 128 128-57.6 128-128-57.6-128-128-128zM128 512c-35.2 0-64-28.8-64-64s28.8-64 64-64 64 28.8 64 64-28.8 64-64 64zM896 320c-70.4 0-128 57.6-128 128s57.6 128 128 128 128-57.6 128-128-57.6-128-128-128zM896 512c-35.2 0-64-28.8-64-64s28.8-64 64-64 64 28.8 64 64-28.8 64-64 64zM512 320c-70.4 0-128 57.6-128 128s57.6 128 128 128 128-57.6 128-128-57.6-128-128-128zM512 512c-35.2 0-64-28.8-64-64s28.8-64 64-64 64 28.8 64 64-28.8 64-64 64z" />
<glyph unicode="&#xe671;" d="M256 704h-256v256h256v-256zM64 768h128v128h-128v-128zM640 704h-256v256h256v-256zM448 768h128v128h-128v-128zM1024 704h-256v256h256v-256zM832 768h128v128h-128v-128zM256-64h-256v256h256v-256zM64 0h128v128h-128v-128zM640-64h-256v256h256v-256zM448 0h128v128h-128v-128zM1024-64h-256v256h256v-256zM832 0h128v128h-128v-128zM256 320h-256v256h256v-256zM64 384h128v128h-128v-128zM640 320h-256v256h256v-256zM448 384h128v128h-128v-128zM1024 320h-256v256h256v-256zM832 384h128v128h-128v-128z" />
<glyph unicode="&#xe672;" d="M512-64c-281.6 0-512 230.4-512 512 0 136 52.8 265.6 150.4 361.6 12.8 12.8 32 12.8 44.8 0s12.8-32 0-44.8c-84.8-84.8-131.2-196.8-131.2-316.8 0-246.4 201.6-448 448-448s448 201.6 448 448c0 236.8-184 430.4-416 446.4v-190.4c0-17.6-14.4-32-32-32s-32 14.4-32 32v256h32c281.6 0 512-230.4 512-512s-230.4-512-512-512zM468.8 404.8l-203.2 244.8c-11.2 14.4-9.6 33.6 4.8 44.8 12.8 9.6 28.8 9.6 41.6 0l244.8-203.2c25.6-22.4 30.4-60.8 8-86.4s-60.8-30.4-86.4-8c-4.8 1.6-8 4.8-9.6 8z" />
<glyph unicode="&#xe673;" d="M320-64c-176 0-320 144-320 320 0 107.2 52.8 206.4 140.8 265.6 14.4 9.6 35.2 6.4 44.8-8s6.4-35.2-8-44.8c-70.4-48-113.6-126.4-113.6-212.8 0-140.8 115.2-256 256-256s256 115.2 256 256c0 86.4-43.2 164.8-113.6 212.8-14.4 9.6-19.2 30.4-8 44.8 9.6 14.4 30.4 19.2 44.8 8 88-59.2 140.8-158.4 140.8-265.6 0-176-144-320-320-320zM520 723.2l-200 236.8-200-236.8c-11.2-12.8-9.6-33.6 3.2-44.8 6.4-4.8 12.8-8 20.8-8 9.6 0 17.6 3.2 24 11.2l120 142.4v-504c0-17.6 14.4-32 32-32s32 14.4 32 32v504l120-140.8c11.2-12.8 32-14.4 44.8-3.2 12.8 9.6 14.4 30.4 3.2 43.2z" horiz-adv-x="640" />
<glyph unicode="&#xe674;" d="M640-64h-640v608h192c17.6 0 32-14.4 32-32s-14.4-32-32-32h-128v-480h512v480h-128c-17.6 0-32 14.4-32 32s14.4 32 32 32h192v-608zM520 723.2l-200 238.4-200-238.4c-11.2-12.8-9.6-33.6 3.2-44.8s33.6-9.6 44.8 3.2l120 142.4v-568c0-17.6 14.4-32 32-32s32 14.4 32 32v568l120-140.8c6.4-8 16-11.2 24-11.2s14.4 3.2 20.8 8c12.8 9.6 14.4 30.4 3.2 43.2z" horiz-adv-x="640" />
<glyph unicode="&#xe675;" d="M512-64c-281.6 0-512 230.4-512 512s230.4 512 512 512 512-230.4 512-512-230.4-512-512-512zM512 896c-246.4 0-448-201.6-448-448s201.6-448 448-448 448 201.6 448 448-201.6 448-448 448zM480 352l-16 352c-1.6 27.2 19.2 49.6 46.4 51.2s49.6-19.2 51.2-46.4c0-1.6 0-3.2 0-4.8l-16-352c-1.6-17.6-16-32-33.6-30.4-17.6 0-30.4 14.4-32 30.4zM512 160c-16 0-33.6 6.4-44.8 19.2-12.8 11.2-19.2 27.2-19.2 44.8 0 16 6.4 33.6 19.2 44.8 11.2 11.2 28.8 19.2 44.8 19.2 17.6 0 33.6-6.4 44.8-19.2 12.8-11.2 19.2-28.8 19.2-44.8 0-17.6-6.4-33.6-19.2-44.8-11.2-12.8-28.8-19.2-44.8-19.2z" />
<glyph unicode="&#xe676;" d="M480 353.6l-16 352c-1.6 27.2 19.2 49.6 46.4 51.2s49.6-19.2 51.2-46.4c0-1.6 0-3.2 0-4.8l-16-352c-1.6-17.6-16-32-33.6-30.4-17.6 0-32 14.4-32 30.4zM512 161.6c-16 0-33.6 6.4-44.8 19.2-12.8 11.2-19.2 27.2-19.2 44.8s6.4 33.6 19.2 44.8c12.8 12.8 28.8 19.2 44.8 19.2 17.6 0 33.6-6.4 44.8-19.2 12.8-11.2 19.2-28.8 19.2-44.8s-6.4-33.6-19.2-44.8c-11.2-12.8-28.8-19.2-44.8-19.2zM724.8-64h-425.6l-299.2 299.2v425.6l299.2 299.2h424l300.8-299.2v-424l-299.2-300.8zM326.4 0h371.2l262.4 262.4v371.2l-262.4 262.4h-371.2l-262.4-262.4v-371.2l262.4-262.4z" />
<glyph unicode="&#xe677;" d="M1024 20.8h-1024l512 886.4 512-886.4zM112 84.8h800l-400 694.4-400-694.4zM512 276.8c-17.6 0-32 14.4-32 32v256c0 17.6 14.4 32 32 32s32-14.4 32-32v-256c0-17.6-14.4-32-32-32zM512 148.8c-12.8 0-25.6 4.8-33.6 14.4-9.6 9.6-14.4 20.8-14.4 33.6s4.8 25.6 14.4 33.6c17.6 17.6 49.6 17.6 67.2 0 9.6-9.6 14.4-20.8 14.4-33.6s-4.8-25.6-14.4-33.6c-8-9.6-20.8-14.4-33.6-14.4z" />
<glyph unicode="&#xe678;" d="M512 960c-283.2 0-512-228.8-512-512s228.8-512 512-512c283.2 0 512 228.8 512 512s-228.8 512-512 512zM710.4 492.8l-201.6-236.8-200 236.8c-11.2 12.8-9.6 33.6 3.2 44.8s33.6 9.6 44.8-3.2l152-179.2 152 179.2c11.2 12.8 32 14.4 44.8 3.2 14.4-11.2 16-32 4.8-44.8z" />
<glyph unicode="&#xe679;" d="M1024 448c0 283.2-228.8 512-512 512s-512-228.8-512-512c0-283.2 228.8-512 512-512s512 228.8 512 512zM556.8 249.6l-236.8 201.6 236.8 200c12.8 11.2 33.6 9.6 44.8-3.2s9.6-33.6-3.2-44.8l-179.2-152 179.2-152c12.8-11.2 14.4-32 3.2-44.8-11.2-14.4-32-16-44.8-4.8z" />
<glyph unicode="&#xe67a;" d="M0 448c0-283.2 228.8-512 512-512s512 228.8 512 512c0 283.2-228.8 512-512 512s-512-228.8-512-512zM467.2 646.4l236.8-201.6-236.8-200c-12.8-11.2-33.6-9.6-44.8 3.2s-9.6 33.6 3.2 44.8l179.2 152-179.2 152c-12.8 11.2-14.4 32-3.2 44.8 11.2 14.4 32 16 44.8 4.8z" />
<glyph unicode="&#xe67b;" d="M512-64c283.2 0 512 228.8 512 512s-228.8 512-512 512c-283.2 0-512-228.8-512-512s228.8-512 512-512zM313.6 403.2l201.6 236.8 200-236.8c11.2-12.8 9.6-33.6-3.2-44.8s-33.6-9.6-44.8 3.2l-152 179.2-152-179.2c-11.2-12.8-32-14.4-44.8-3.2-14.4 11.2-16 32-4.8 44.8z" />
<glyph unicode="&#xe67c;" d="M512 960c-283.2 0-512-228.8-512-512s228.8-512 512-512c283.2 0 512 228.8 512 512s-228.8 512-512 512zM713.6 363.2l-179.2-212.8c0 0 0 0 0 0l-22.4-25.6-203.2 238.4c-11.2 12.8-9.6 33.6 3.2 44.8s33.6 9.6 44.8-3.2l121.6-144v475.2c0 17.6 14.4 32 32 32s32-14.4 32-32v-475.2l121.6 144c11.2 12.8 32 14.4 44.8 3.2 16-11.2 17.6-32 4.8-44.8z" />
<glyph unicode="&#xe67d;" d="M1024 448c0 283.2-228.8 512-512 512s-512-228.8-512-512c0-283.2 228.8-512 512-512s512 228.8 512 512zM427.2 246.4l-212.8 179.2c0 0 0 0 0 0l-25.6 22.4 238.4 203.2c12.8 11.2 33.6 9.6 44.8-3.2s9.6-33.6-3.2-44.8l-144-121.6h475.2c17.6 0 32-14.4 32-32s-14.4-32-32-32h-475.2l144-121.6c12.8-11.2 14.4-32 3.2-44.8-11.2-16-32-17.6-44.8-4.8z" />
<glyph unicode="&#xe67e;" d="M0 448c0-283.2 228.8-512 512-512s512 228.8 512 512c0 283.2-228.8 512-512 512s-512-228.8-512-512zM596.8 649.6l211.2-179.2 27.2-22.4-238.4-203.2c-12.8-11.2-33.6-9.6-44.8 3.2s-9.6 33.6 3.2 44.8l144 121.6h-475.2c-17.6 0-32 14.4-32 32s14.4 32 32 32h475.2l-144 121.6c-12.8 11.2-14.4 32-3.2 44.8 11.2 14.4 32 17.6 44.8 4.8z" />
<glyph unicode="&#xe67f;" d="M512-64c283.2 0 512 228.8 512 512s-228.8 512-512 512c-283.2 0-512-228.8-512-512s228.8-512 512-512zM310.4 532.8l179.2 211.2c0 0 0 0 0 0l22.4 27.2 203.2-238.4c11.2-12.8 9.6-33.6-3.2-44.8s-33.6-9.6-44.8 3.2l-121.6 144v-475.2c0-17.6-14.4-32-32-32s-32 14.4-32 32v475.2l-121.6-142.4c-11.2-12.8-32-14.4-44.8-3.2-16 9.6-17.6 30.4-4.8 43.2z" />
<glyph unicode="&#xe680;" d="M0 960v-1024h1024v1024h-1024zM713.6 363.2l-201.6-238.4-203.2 238.4c-11.2 12.8-9.6 33.6 3.2 44.8s33.6 9.6 44.8-3.2l121.6-144v475.2c0 17.6 14.4 32 32 32s32-14.4 32-32v-475.2l121.6 144c11.2 12.8 32 14.4 44.8 3.2 14.4-11.2 17.6-32 4.8-44.8z" />
<glyph unicode="&#xe681;" d="M1024 960h-1024v-1024h1024v1024zM472 646.4c11.2-12.8 9.6-33.6-3.2-44.8l-144-121.6h475.2c17.6 0 32-14.4 32-32s-14.4-32-32-32h-475.2l144-121.6c12.8-11.2 14.4-32 3.2-44.8s-32-14.4-44.8-3.2l-238.4 201.6 238.4 201.6c12.8 12.8 33.6 9.6 44.8-3.2z" />
<glyph unicode="&#xe682;" d="M0-64h1024v1024h-1024v-1024zM596.8 649.6l238.4-201.6-238.4-203.2c-12.8-11.2-33.6-9.6-44.8 3.2s-9.6 33.6 3.2 44.8l144 121.6h-475.2c-17.6 0-32 14.4-32 32s14.4 32 32 32h475.2l-142.4 121.6c-12.8 11.2-14.4 32-3.2 44.8 9.6 14.4 30.4 17.6 43.2 4.8z" />
<glyph unicode="&#xe683;" d="M1024-64v1024h-1024v-1024h1024zM310.4 532.8l201.6 238.4 203.2-238.4c11.2-12.8 9.6-33.6-3.2-44.8s-33.6-9.6-44.8 3.2l-121.6 144v-475.2c0-17.6-14.4-32-32-32s-32 14.4-32 32v475.2l-121.6-142.4c-11.2-12.8-32-14.4-44.8-3.2-14.4 9.6-17.6 30.4-4.8 43.2z" />
<glyph unicode="&#xe684;" d="M448 608v192l-448-320 448-320v192c177.6 0 340.8-6.4 480-256 0 158.4-22.4 507.2-480 512z" horiz-adv-x="928" />
<glyph unicode="&#xe685;" d="M640 744v144l-352-240 352-240v144c134.4 0 246.4-4.8 352-192 0 118.4-6.4 380.8-352 384zM768 72h-704v544h158.4v64h-222.4v-672h832v451.2h-64z" horiz-adv-x="992" />
<glyph unicode="&#xe686;" d="M512-64c283.2 0 512 228.8 512 512s-228.8 512-512 512c-283.2 0-512-228.8-512-512s228.8-512 512-512zM329.6 568c6.4 4.8 14.4 8 22.4 8s17.6-3.2 24-9.6c12.8-12.8 11.2-33.6-1.6-44.8l-78.4-73.6h376c35.2 0 64 28.8 64 64s-28.8 64-64 64c-17.6 0-32 14.4-32 32s14.4 32 32 32c70.4 0 128-57.6 128-128s-57.6-128-128-128h-376l78.4-72c12.8-12.8 12.8-32 1.6-44.8-12.8-12.8-32-14.4-44.8-1.6l-163.2 150.4 161.6 152z" />
<glyph unicode="&#xe687;" d="M873.6 809.6c-200 200-523.2 200-723.2 0s-200-524.8 0-724.8c200-200 524.8-200 724.8 0 198.4 201.6 198.4 524.8-1.6 724.8zM758.4 536l-278.4-276.8-166.4 166.4c-12.8 12.8-12.8 32 0 44.8s32 12.8 44.8 0l121.6-121.6 233.6 233.6c12.8 12.8 32 12.8 44.8 0s12.8-33.6 0-46.4z" />
<glyph unicode="&#xe688;" d="M0 960v-1024h1024v1024h-1024zM758.4 544l-278.4-276.8-166.4 166.4c-12.8 12.8-12.8 32 0 44.8s32 12.8 44.8 0l121.6-121.6 233.6 233.6c12.8 12.8 32 12.8 44.8 0s12.8-33.6 0-46.4z" />
<glyph unicode="&#xe689;" d="M873.6 809.6c-200 200-523.2 200-723.2 0s-200-524.8 0-724.8c200-200 524.8-200 724.8 0 198.4 201.6 198.4 524.8-1.6 724.8zM715.2 289.6c12.8-12.8 12.8-32 0-44.8-6.4-6.4-14.4-9.6-22.4-9.6s-16 3.2-22.4 9.6l-158.4 158.4-158.4-158.4c-6.4-6.4-14.4-9.6-22.4-9.6s-16 3.2-22.4 9.6c-12.8 12.8-12.8 32 0 44.8l158.4 158.4-158.4 158.4c-12.8 12.8-12.8 32 0 44.8s32 12.8 44.8 0l158.4-158.4 158.4 158.4c12.8 12.8 32 12.8 44.8 0s12.8-32 0-44.8l-158.4-158.4 158.4-158.4z" />
<glyph unicode="&#xe68a;" d="M0 960v-1024h1024v1024h-1024zM715.2 289.6c12.8-12.8 12.8-32 0-44.8-6.4-6.4-14.4-9.6-22.4-9.6s-16 3.2-22.4 9.6l-158.4 158.4-158.4-158.4c-6.4-6.4-14.4-9.6-22.4-9.6s-16 3.2-22.4 9.6c-12.8 12.8-12.8 32 0 44.8l158.4 158.4-158.4 158.4c-12.8 12.8-12.8 32 0 44.8s32 12.8 44.8 0l158.4-158.4 158.4 158.4c12.8 12.8 32 12.8 44.8 0s12.8-32 0-44.8l-158.4-158.4 158.4-158.4z" />
<glyph unicode="&#xe68b;" d="M128 632h640v-368h-640v368zM32 488c17.6 0 32 14.4 32 32v176h256c17.6 0 32 14.4 32 32s-14.4 32-32 32h-320v-240c0-17.6 14.4-32 32-32zM576 696h256v-176c0-17.6 14.4-32 32-32s32 14.4 32 32v240h-320c-17.6 0-32-14.4-32-32s14.4-32 32-32zM320 200h-256v192c0 17.6-14.4 32-32 32s-32-14.4-32-32v-256h320c17.6 0 32 14.4 32 32s-14.4 32-32 32zM864 424c-17.6 0-32-14.4-32-32v-192h-256c-17.6 0-32-14.4-32-32s14.4-32 32-32h320v256c0 17.6-14.4 32-32 32z" horiz-adv-x="896" />
<glyph unicode="&#xe68c;" d="M0 880v-864h864v864h-864zM640 176h-416c-17.6 0-32 14.4-32 32s14.4 32 32 32h416c17.6 0 32-14.4 32-32s-14.4-32-32-32z" horiz-adv-x="864" />
<glyph unicode="&#xe68d;" d="M128 576c-70.4 0-128-57.6-128-128s57.6-128 128-128 128 57.6 128 128c0 70.4-57.6 128-128 128zM896 576c-70.4 0-128-57.6-128-128s57.6-128 128-128c70.4 0 128 57.6 128 128s-57.6 128-128 128zM512 576c-70.4 0-128-57.6-128-128s57.6-128 128-128c70.4 0 128 57.6 128 128s-57.6 128-128 128z" />
<glyph unicode="&#xe68e;" d="M224 640h576v-384h-576v384zM32 672c17.6 0 32 14.4 32 32v192h288c17.6 0 32 14.4 32 32s-14.4 32-32 32h-352v-256c0-17.6 14.4-32 32-32zM672 960c-17.6 0-32-14.4-32-32s14.4-32 32-32h288v-192c0-17.6 14.4-32 32-32s32 14.4 32 32v256h-352zM352 0h-288v192c0 17.6-14.4 32-32 32s-32-14.4-32-32v-256h352c17.6 0 32 14.4 32 32s-14.4 32-32 32zM992 224c-17.6 0-32-14.4-32-32v-192h-288c-17.6 0-32-14.4-32-32s14.4-32 32-32h352v256c0 17.6-14.4 32-32 32z" />
<glyph unicode="&#xe68f;" d="M512 960c-281.6 0-512-230.4-512-512s230.4-512 512-512 512 230.4 512 512c0 281.6-230.4 512-512 512zM464 720c20.8 20.8 59.2 20.8 80 0 11.2-9.6 16-24 16-40 0-14.4-6.4-28.8-16-40-11.2-11.2-25.6-16-40-16s-28.8 6.4-40 16c-9.6 11.2-16 25.6-16 40s6.4 28.8 16 40zM576 160h-128v64h32v288h-32v64h96v-352h32v-64z" />
<glyph unicode="&#xe690;" d="M0 592h736v-576h-736v576zM288 880v-224h512v-352h224v576z" />
<glyph unicode="&#xe691;" d="M384 896h640v-192h-640v192zM384 192h640v-192h-640v192zM384 544h640v-192h-640v192zM128 928c-70.4 0-128-57.6-128-128s57.6-128 128-128c70.4 0 128 57.6 128 128s-57.6 128-128 128zM128 224c-70.4 0-128-57.6-128-128s57.6-128 128-128c70.4 0 128 57.6 128 128s-57.6 128-128 128zM128 576c-70.4 0-128-57.6-128-128s57.6-128 128-128c70.4 0 128 57.6 128 128s-57.6 128-128 128z" />
<glyph unicode="&#xe692;" d="M0 960h256v-1024h-256v1024zM384 960h640v-256h-640v256zM384 192h640v-256h-640v256zM384 576h640v-256h-640v256z" />
<glyph unicode="&#xe693;" d="M0 960h256v-256h-256v256zM384 960h640v-256h-640v256zM0 192h256v-256h-256v256zM384 192h640v-256h-640v256zM0 576h256v-256h-256v256zM384 576h640v-256h-640v256z" />
<glyph unicode="&#xe694;" d="M0 864h384v-384h-384v384zM0 416h384v-384h-384v384zM512 704h448c17.6 0 32 14.4 32 32s-14.4 32-32 32h-448c-17.6 0-32-14.4-32-32s14.4-32 32-32zM960 576h-448c-17.6 0-32-14.4-32-32s14.4-32 32-32h448c17.6 0 32 14.4 32 32s-14.4 32-32 32zM960 384h-448c-17.6 0-32-14.4-32-32s14.4-32 32-32h448c17.6 0 32 14.4 32 32s-14.4 32-32 32zM960 192h-448c-17.6 0-32-14.4-32-32s14.4-32 32-32h448c17.6 0 32 14.4 32 32s-14.4 32-32 32z" horiz-adv-x="992" />
<glyph unicode="&#xe695;" d="M288 608h448v-320h-448v320zM108.8 832h115.2c17.6 0 32 14.4 32 32s-14.4 32-32 32h-224v-224c0-17.6 14.4-32 32-32s32 14.4 32 32v115.2l137.6-137.6c6.4-6.4 14.4-9.6 22.4-9.6s16 3.2 22.4 9.6c12.8 12.8 12.8 32 0 44.8l-137.6 137.6zM800 896c-17.6 0-32-14.4-32-32s14.4-32 32-32h115.2l-137.6-137.6c-12.8-12.8-12.8-32 0-44.8 6.4-6.4 14.4-9.6 22.4-9.6s16 3.2 22.4 9.6l137.6 137.6v-115.2c0-17.6 14.4-32 32-32s32 14.4 32 32v224h-224zM246.4 246.4c-12.8 12.8-32 12.8-44.8 0l-137.6-137.6v115.2c0 17.6-14.4 32-32 32s-32-14.4-32-32v-224h224c17.6 0 32 14.4 32 32s-14.4 32-32 32h-115.2l137.6 137.6c12.8 12.8 12.8 32 0 44.8zM992 256c-17.6 0-32-14.4-32-32v-115.2l-137.6 137.6c-12.8 12.8-32 12.8-44.8 0s-12.8-32 0-44.8l137.6-137.6h-115.2c-17.6 0-32-14.4-32-32s14.4-32 32-32h224v224c0 17.6-14.4 32-32 32z" />
<glyph unicode="&#xe696;" d="M320 576h384v-256h-384v256zM256 864c-17.6 0-32-14.4-32-32v-115.2l-169.6 169.6c-12.8 12.8-32 12.8-44.8 0s-12.8-32 0-44.8l169.6-169.6h-115.2c-17.6 0-32-14.4-32-32s14.4-32 32-32h224v224c0 17.6-14.4 32-32 32zM960 608c17.6 0 32 14.4 32 32s-14.4 32-32 32h-115.2l169.6 169.6c12.8 12.8 12.8 32 0 44.8s-32 12.8-44.8 0l-169.6-169.6v115.2c0 17.6-14.4 32-32 32s-32-14.4-32-32v-224h224zM64 288c-17.6 0-32-14.4-32-32s14.4-32 32-32h115.2l-169.6-169.6c-12.8-12.8-12.8-32 0-44.8 6.4-6.4 14.4-9.6 22.4-9.6s16 3.2 22.4 9.6l169.6 169.6v-115.2c0-17.6 14.4-32 32-32s32 14.4 32 32v224h-224zM844.8 224h115.2c17.6 0 32 14.4 32 32s-14.4 32-32 32h-224v-224c0-17.6 14.4-32 32-32s32 14.4 32 32v115.2l169.6-169.6c6.4-6.4 14.4-9.6 22.4-9.6s16 3.2 22.4 9.6c12.8 12.8 12.8 32 0 44.8l-169.6 169.6z" />
<glyph unicode="&#xe697;" d="M512 960c-283.2 0-512-228.8-512-512s228.8-512 512-512c283.2 0 512 228.8 512 512s-228.8 512-512 512zM768 416h-512c-17.6 0-32 14.4-32 32s14.4 32 32 32h512c17.6 0 32-14.4 32-32s-14.4-32-32-32z" />
<glyph unicode="&#xe698;" d="M0 960v-1024h1024v1024h-1024zM768 416h-512c-17.6 0-32 14.4-32 32s14.4 32 32 32h512c17.6 0 32-14.4 32-32s-14.4-32-32-32z" />
<glyph unicode="&#xe699;" d="M480 608v192l448-320-448-320v192c-177.6 0-340.8-6.4-480-256 0 158.4 22.4 507.2 480 512z" horiz-adv-x="928" />
<glyph unicode="&#xe69a;" d="M352 744v144l352-240-352-240v144c-134.4 0-246.4-4.8-352-192 0 118.4 6.4 380.8 352 384zM224 72h704v544h-158.4v64h222.4v-672h-832v451.2h64z" horiz-adv-x="992" />
<glyph unicode="&#xe69b;" d="M512 960c-283.2 0-512-228.8-512-512s228.8-512 512-512c283.2 0 512 228.8 512 512s-228.8 512-512 512zM694.4 328c-6.4-4.8-14.4-8-22.4-8s-17.6 3.2-24 9.6c-12.8 12.8-11.2 33.6 1.6 44.8l78.4 72h-376c-35.2 0-64-28.8-64-64s28.8-64 64-64c17.6 0 32-14.4 32-32s-14.4-32-32-32c-70.4 0-128 57.6-128 128s57.6 128 128 128h376l-78.4 72c-12.8 12.8-12.8 32-1.6 44.8 12.8 12.8 32 12.8 44.8 1.6l163.2-148.8-161.6-152z" />
<glyph unicode="&#xe69c;" d="M512 960c-283.2 0-512-228.8-512-512s228.8-512 512-512c283.2 0 512 228.8 512 512s-228.8 512-512 512zM768 416h-224v-224c0-17.6-14.4-32-32-32s-32 14.4-32 32v224h-224c-17.6 0-32 14.4-32 32s14.4 32 32 32h224v224c0 17.6 14.4 32 32 32s32-14.4 32-32v-224h224c17.6 0 32-14.4 32-32s-14.4-32-32-32z" />
<glyph unicode="&#xe69d;" d="M0 960v-1024h1024v1024h-1024zM768 416h-224v-224c0-17.6-14.4-32-32-32s-32 14.4-32 32v224h-224c-17.6 0-32 14.4-32 32s14.4 32 32 32h224v224c0 17.6 14.4 32 32 32s32-14.4 32-32v-224h224c17.6 0 32-14.4 32-32s-14.4-32-32-32z" />
<glyph unicode="&#xe69e;" d="M512 960c-281.6 0-512-230.4-512-512s230.4-512 512-512 512 230.4 512 512c0 281.6-230.4 512-512 512zM545.6 174.4c-8-9.6-20.8-14.4-33.6-14.4s-25.6 4.8-33.6 14.4c-9.6 8-14.4 20.8-14.4 33.6s4.8 25.6 14.4 33.6c17.6 17.6 49.6 17.6 67.2 0 8-9.6 14.4-20.8 14.4-33.6s-4.8-25.6-14.4-33.6zM593.6 425.6c-49.6-49.6-49.6-70.4-49.6-92.8v-12.8c0-17.6-14.4-32-32-32s-32 14.4-32 32v12.8c0 38.4 4.8 73.6 68.8 137.6 52.8 52.8 59.2 81.6 59.2 105.6 0 1.6-1.6 96-96 96-91.2 0-112-68.8-112-96 0-17.6-14.4-32-32-32s-32 14.4-32 32c0 62.4 48 160 176 160 116.8 0 160-97.6 160-160 0-51.2-24-96-78.4-150.4z" />
<glyph unicode="&#xe69f;" d="M0 960v-384c0-225.6 134.4-508.8 435.2-633.6l12.8-6.4 12.8 4.8c300.8 124.8 435.2 408 435.2 635.2v384h-896zM630.4 374.4c12.8-12.8 12.8-32 0-44.8-6.4-6.4-14.4-9.6-22.4-9.6s-16 3.2-22.4 9.6l-137.6 137.6-137.6-137.6c-6.4-6.4-14.4-9.6-22.4-9.6s-16 3.2-22.4 9.6c-12.8 12.8-12.8 32 0 44.8l137.6 137.6-137.6 137.6c-12.8 12.8-12.8 32 0 44.8s32 12.8 44.8 0l137.6-137.6 137.6 137.6c12.8 12.8 32 12.8 44.8 0s12.8-32 0-44.8l-137.6-137.6 137.6-137.6z" horiz-adv-x="896" />
<glyph unicode="&#xe6a0;" d="M0 960v-384c0-225.6 134.4-508.8 435.2-633.6l12.8-6.4 12.8 4.8c300.8 124.8 435.2 408 435.2 635.2v384h-896zM694.4 617.6l-278.4-278.4-166.4 166.4c-12.8 12.8-12.8 32 0 44.8s32 12.8 44.8 0l121.6-121.6 233.6 232c12.8 12.8 32 12.8 44.8 0 12.8-11.2 12.8-32 0-43.2z" horiz-adv-x="896" />
<glyph unicode="&#xe6a1;" d="M144 171.2v692.8c0 17.6-14.4 32-32 32s-32-14.4-32-32v-692.8c-46.4-14.4-80-56-80-107.2 0-62.4 49.6-112 112-112s112 49.6 112 112c0 51.2-33.6 92.8-80 107.2zM992 832c0 62.4-49.6 112-112 112s-112-49.6-112-112c0-51.2 33.6-92.8 80-107.2v-692.8c0-17.6 14.4-32 32-32s32 14.4 32 32v692.8c46.4 14.4 80 56 80 107.2zM528 555.2v308.8c0 17.6-14.4 32-32 32s-32-14.4-32-32v-308.8c-46.4-14.4-80-56-80-107.2s33.6-92.8 80-107.2v-308.8c0-17.6 14.4-32 32-32s32 14.4 32 32v308.8c46.4 14.4 80 56 80 107.2s-33.6 92.8-80 107.2z" horiz-adv-x="992" />
<glyph unicode="&#xe6a2;" d="M256 656h512v-416h-512v416zM160 688c-17.6 0-32-14.4-32-32v-416c0-17.6 14.4-32 32-32s32 14.4 32 32v416c0 17.6-14.4 32-32 32zM32 752c-17.6 0-32-14.4-32-32v-544c0-17.6 14.4-32 32-32s32 14.4 32 32v544c0 17.6-14.4 32-32 32zM864 688c-17.6 0-32-14.4-32-32v-416c0-17.6 14.4-32 32-32s32 14.4 32 32v416c0 17.6-14.4 32-32 32zM992 752c-17.6 0-32-14.4-32-32v-544c0-17.6 14.4-32 32-32s32 14.4 32 32v544c0 17.6-14.4 32-32 32z" />
<glyph unicode="&#xe6a3;" d="M1024 563.2l-360 43.2-152 329.6-152-329.6-360-43.2 265.6-246.4-70.4-356.8 316.8 177.6 316.8-177.6-70.4 356.8z" />
<glyph unicode="&#xe6a4;" d="M0 960h448v-448h-448v448zM0 384h448v-448h-448v448zM576 960h448v-448h-448v448zM576 384h448v-448h-448v448z" />
<glyph unicode="&#xe6a5;" d="M128 960c-70.4 0-128-57.6-128-128s57.6-128 128-128c70.4 0 128 57.6 128 128s-57.6 128-128 128zM896 704c70.4 0 128 57.6 128 128s-57.6 128-128 128c-70.4 0-128-57.6-128-128s57.6-128 128-128zM512 960c-70.4 0-128-57.6-128-128s57.6-128 128-128c70.4 0 128 57.6 128 128s-57.6 128-128 128zM128 192c-70.4 0-128-57.6-128-128s57.6-128 128-128c70.4 0 128 57.6 128 128s-57.6 128-128 128zM896 192c-70.4 0-128-57.6-128-128s57.6-128 128-128c70.4 0 128 57.6 128 128s-57.6 128-128 128zM512 192c-70.4 0-128-57.6-128-128s57.6-128 128-128c70.4 0 128 57.6 128 128s-57.6 128-128 128zM128 576c-70.4 0-128-57.6-128-128s57.6-128 128-128c70.4 0 128 57.6 128 128s-57.6 128-128 128zM896 576c-70.4 0-128-57.6-128-128s57.6-128 128-128c70.4 0 128 57.6 128 128s-57.6 128-128 128zM512 576c-70.4 0-128-57.6-128-128s57.6-128 128-128c70.4 0 128 57.6 128 128s-57.6 128-128 128z" />
<glyph unicode="&#xe6a6;" d="M0 960h256v-256h-256v256zM384 960h256v-256h-256v256zM768 960h256v-256h-256v256zM0 192h256v-256h-256v256zM384 192h256v-256h-256v256zM768 192h256v-256h-256v256zM0 576h256v-256h-256v256zM384 576h256v-256h-256v256zM768 576h256v-256h-256v256z" />
<glyph unicode="&#xe6a7;" d="M512 960c-281.6 0-512-230.4-512-512s230.4-512 512-512 512 230.4 512 512c0 281.6-230.4 512-512 512zM510.4 755.2c27.2 1.6 49.6-19.2 51.2-46.4 0-1.6 0-3.2 0-4.8l-16-352c-1.6-17.6-16-32-33.6-30.4-16 0-30.4 14.4-30.4 30.4l-16 352c-3.2 27.2 17.6 49.6 44.8 51.2zM556.8 179.2c-11.2-12.8-27.2-19.2-44.8-19.2s-33.6 6.4-44.8 19.2c-12.8 11.2-19.2 27.2-19.2 44.8s6.4 33.6 19.2 44.8c11.2 12.8 28.8 19.2 44.8 19.2s33.6-6.4 44.8-19.2c11.2-11.2 19.2-28.8 19.2-44.8 0-17.6-6.4-33.6-19.2-44.8z" />
<glyph unicode="&#xe6a8;" d="M724.8 960h-425.6l-299.2-299.2v-424l299.2-300.8h424l300.8 299.2v425.6l-299.2 299.2zM508.8 756.8c27.2 1.6 49.6-19.2 51.2-46.4 0-1.6 0-3.2 0-4.8l-16-352c-1.6-17.6-16-32-33.6-30.4-16 0-30.4 14.4-30.4 30.4l-16 352c-1.6 27.2 19.2 49.6 44.8 51.2zM556.8 180.8c-11.2-11.2-28.8-19.2-44.8-19.2s-33.6 6.4-44.8 19.2c-12.8 11.2-19.2 27.2-19.2 44.8s6.4 33.6 19.2 44.8c12.8 11.2 28.8 19.2 44.8 19.2 17.6 0 33.6-6.4 44.8-19.2 12.8-12.8 19.2-28.8 19.2-44.8 0-17.6-6.4-33.6-19.2-44.8z" />
<glyph unicode="&#xe6a9;" d="M512 891.2l-512-886.4h1024l-512 886.4zM480 548.8c0 17.6 14.4 32 32 32s32-14.4 32-32v-256c0-17.6-14.4-32-32-32s-32 14.4-32 32v256zM512 132.8c-12.8 0-25.6 4.8-33.6 14.4-9.6 9.6-14.4 20.8-14.4 33.6s4.8 25.6 14.4 33.6c17.6 17.6 49.6 17.6 67.2 0 9.6-9.6 14.4-20.8 14.4-33.6s-4.8-25.6-14.4-33.6c-8-9.6-20.8-14.4-33.6-14.4z" />
<glyph unicode="&#xe6aa;" d="M1024-64h-416v416h416v-416zM448-64h-448v1024h1024v-448c0-17.6-14.4-32-32-32s-32 14.4-32 32v384h-896v-896h384c17.6 0 32-14.4 32-32s-14.4-32-32-32zM566.4 438.4l-297.6 297.6h179.2c17.6 0 32 14.4 32 32s-14.4 32-32 32h-288v-288c0-17.6 14.4-32 32-32s32 14.4 32 32v179.2l297.6-297.6c6.4-6.4 14.4-9.6 22.4-9.6s16 3.2 22.4 9.6c12.8 12.8 12.8 32 0 44.8z" />
<glyph unicode="&#xe6ab;" d="M416-64h-416v416h416v-416zM1024-64h-448c-17.6 0-32 14.4-32 32s14.4 32 32 32h384v896h-896v-384c0-17.6-14.4-32-32-32s-32 14.4-32 32v448h1024v-1024zM576 800c-17.6 0-32-14.4-32-32s14.4-32 32-32h179.2l-297.6-297.6c-12.8-12.8-12.8-32 0-44.8 6.4-6.4 14.4-9.6 22.4-9.6s16 3.2 22.4 9.6l297.6 297.6v-179.2c0-17.6 14.4-32 32-32s32 14.4 32 32v288h-288z" />
</font>
</defs>
</svg>
